img image001 image001 image001 image001 image001 image001 image001 image001 image001 image001 image001 image001 image001 image001 image001

Planets Sun Sun Sun
Статистика раздачи
Автор: Снежана | Размер: 2.53 ГБ | Добавлен: 02 авг 2013
Раздают: 0    Качают: 2
Скачать торрент
Скачать торрент
Описание торрента

СообщениеДобавлено: 02 авг 2013 

Roland Garros 2013 / Финал / Рафаэль Надаль - Давид Феррер.



Канал: Евроспорт2
Комментатор: Илья Геец, Анна Чакветадзе
Язык комментария: русский RUS
На вышке: Луиза Энгзель

Описание: Полный матч, награждение, без рекламы

Качество: SAT ABS1 75*
General
Complete name : F:Tennis myRG2013.F.Makarova_Vesnina-Errani_Vinc.mpg
Format : MPEG-PS
File size : 2.53 GiB
Duration : 1h 44mn
Overall bit rate : 3 458 Kbps

Video
ID : 224 (0xE0)
Format : MPEG Video
Format version : Version 2
Format profile : Main@Main
Format settings, BVOP : Yes
Format settings, Matrix : Default
Duration : 1h 44mn
Bit rate mode : Variable
Bit rate : 3 293 Kbps
Nominal bit rate : 15.0 Mbps
Width : 704 pixels
Height : 576 pixels
Display aspect ratio : 16:9
Frame rate : 25.000 fps
Standard : PAL
Color space : YUV
Chroma subsampling : 4:2:0
Bit depth : 8 bits
Scan type : Interlaced
Scan order : Top Field First
Compression mode : Lossy
Bits/(Pixel*Frame) : 0.325
Stream size : 2.41 GiB (95%)

Audio
ID : 192 (0xC0)
Format : MPEG Audio
Format version : Version 1
Format profile : Layer 2
Mode extension : Intensity Stereo + MS Stereo
Duration : 1h 44mn
Bit rate mode : Constant
Bit rate : 96.0 Kbps
Channel(s) : 1 channel
Sampling rate : 48.0 KHz
Compression mode : Lossy
Stream size : 72.0 MiB (3%)


7-5 6-2



   Похожие торренты   Торрент   Размер 
В этой теме нет новых непрочитанных сообщений. Теннис. Roland Garros 2013. 1/2 финала. Серена Вильямс (США) - Сара Эррани (Италия) (2013) DVB-S2 Remux

0 | 2

3.95 ГБ

В этой теме нет новых непрочитанных сообщений. Теннис. Roland Garros 2012. Финал. Сара Эррани (Италия) - Мария Шарапова (Россия) (2012) IPTV

6 | 2

3.05 ГБ

В этой теме нет новых непрочитанных сообщений. Теннис. Roland Garros 2012. Финал. Сара Эррани (Италия) - Мария Шарапова (Россия) (2012) HDTV 1080i

0 | 2

8.16 ГБ

В этой теме нет новых непрочитанных сообщений. Теннис. Roland Garros 2014. 1/4 Финала. Сара Эррани - Андреа Петкович (2014) HDTVRip 720p | 50 fps

2 | 2

1.27 ГБ

В этой теме нет новых непрочитанных сообщений. Теннис. Australian Open 2015. 2-ой круг. Роберта Винчи (Италия) - [10] Екатерина Макарова (Россия) [21.01] (2015) HDTV 1080i

1 | 3

5.56 ГБ

В этой теме нет новых непрочитанных сообщений. Теннис. Roland Garros 2013. 1/4 финала. Елена Янкович (Сербия) - Мария Шарапова (Россия) (2013) HDTVRip 720p

0 | 9

3.05 ГБ

В этой теме нет новых непрочитанных сообщений. Теннис. Roland Garros 2013. Финал. Рафаэль Надаль - Давид Феррер (2013) SATRip

1 | 2

2.02 ГБ




Вы не можете начинать темы
Вы не можете отвечать на сообщения
Вы не можете редактировать свои сообщения
Вы не можете удалять свои сообщения
Вы не можете добавлять вложения

Перейти:  
Для Мосгорсуда, Роскомнадзора и рекламодателей: mosgorsud-torrent[собачка]yandex.ru
 Вход
ppkBB3cker v.2 © 2008-2014 @ PPK
[ Time : 0.033s | 15 Queries | GZIP : Off ]

cron