img image001 image001 image001 image001 image001 image001 image001 image001 image001 image001 image001 image001 image001 image001 image001

Planets Sun Sun Sun
Статистика раздачи
Автор: Снежана | Размер: 9.27 ГБ | Добавлен: 02 авг 2013
Раздают: 0    Качают: 2
Скачать торрент
Скачать торрент
Описание торрента

СообщениеДобавлено: 02 авг 2013 

#77


Вид спорта: Футбол
Год выпуска: 15.06.2013
Язык комментариев: Русский (Александр Гришин)
Участники: Бразилия - Япония

Описание: Кубок Конфедераций 2013 / Группа А / 1-й тур / Бразилия - Япония
Автор рипа.записи: MrDrax





3-0


Качество: HDTV
Продолжительность: 01:37:01

Формат: TS
Видео кодек: H.264
Аудио кодек: MP2
Свойства видео: 1920x1080, 25,000 кадров/сек, 10,1 Мбит/сек
Свойства аудио: 48,0 КГц, 2ch stereo, 192 Кбит/сек
Формат : MPEG-TS
Размер файла : 9,27 Гбайт
Продолжительность : 1 ч. 37 м.
Режим общего битрейта : Переменный
Общий поток : 13,7 Мбит/сек

Видео
Идентификатор : 303 (0x12F)
Идентификатор меню : 1 (0x1)
Формат : AVC
Формат/Информация : Advanced Video Codec
Профиль формата : High@L4.0
Параметр CABAC формата : Да
Параметр ReFrames формата : 3 кадра
Идентификатор кодека : 27
Продолжительность : 1 ч. 37 м.
Битрейт : 12,8 Мбит/сек
Ширина : 1920 пикселей
Высота : 1080 пикселей
Соотношение сторон : 16:9
Частота кадров : 25,000 кадров/сек
Стандарт вещания : Component
Цветовое пространство : YUV
Субдискретизация насыщенности : 4:2:0
Битовая глубина : 8 бит
Тип развёртки : Чересстрочная
Порядок развёртки : Верхнее поле первое
Бит/(Пиксели*Кадры) : 0.247
Размер потока : 8,68 Гбайт (94%)
Основные цвета : BT.709
Характеристики трансфера : BT.709
Коэффициенты матрицы : BT.709

Аудио
Идентификатор : 403 (0x193)
Идентификатор меню : 1 (0x1)
Формат : MPEG Audio
Версия формата : Version 1
Профиль формата : Layer 2
Идентификатор кодека : 3
Продолжительность : 1 ч. 37 м.
Вид битрейта : Постоянный
Битрейт : 192 Кбит/сек
Каналы : 2 канала
Частота : 48,0 КГц
Метод сжатия : С потерями
Размер потока : 133 Мбайт (1%)
Язык : Russian



   Похожие торренты   Торрент   Размер 
В этой теме нет новых непрочитанных сообщений. Футбол. Кубок Конфедераций 2013. Группа А. 1-й тур. Бразилия - Япония (2013) SATRip

0 | 4

1.33 ГБ

В этой теме нет новых непрочитанных сообщений. Футбол. Кубок Конфедераций 2013. Группа А. 1-й тур. Бразилия - Япония (2013) HDTVRip 720p | 50 FPS

0 | 2

2.95 ГБ

В этой теме нет новых непрочитанных сообщений. Футбол. Кубок Конфедераций 2013. Финал + Награждение. Бразилия - Испания (2013) HDTV 1080i

0 | 1

12.23 ГБ

В этой теме нет новых непрочитанных сообщений. Футбол. Кубок Конфедераций 2013. Группа A. 3-й тур. Япония - Мексика (2013) IPTVRip

0 | 2

1.45 ГБ

В этой теме нет новых непрочитанных сообщений. Футбол. Кубок Конфедераций 2013. Группа А. 2-й тур. Италия - Япония (2013) HDTVRip

1 | 2

1.4 ГБ

В этой теме нет новых непрочитанных сообщений. Футбол. Кубок Конфедераций 2013. Группа А. 2-й тур. Италия - Япония (2013) HDTVRip 720p | 50 FPS

1 | 2

3.15 ГБ

В этой теме нет новых непрочитанных сообщений. Футбол. Кубок Конфедераций 2013. Группа A. 3-й тур. Япония - Мексика (2013) HDTVRip 720p | 50 FPS

0 | 2

3.02 ГБ




Вы не можете начинать темы
Вы не можете отвечать на сообщения
Вы не можете редактировать свои сообщения
Вы не можете удалять свои сообщения
Вы не можете добавлять вложения

Перейти:  
Для Мосгорсуда, Роскомнадзора и рекламодателей: mosgorsud-torrent[собачка]yandex.ru
 Вход
ppkBB3cker v.2 © 2008-2014 @ PPK
[ Time : 0.045s | 15 Queries | GZIP : Off ]

cron