img image001 image001 image001 image001 image001 image001 image001 image001 image001 image001 image001 image001 image001 image001 image001 image001

Planets Sun Sun Sun
Статистика раздачи
Автор: Снежана | Размер: 9.63 ГБ | Добавлен: 02 авг 2013
Раздают: 2    Качают: 2
Скачать торрент
Скачать торрент
Описание торрента

СообщениеДобавлено: 02 авг 2013 

GP3 2013. Этап 02. (Circuit Ricardo Tormo) Испания. Квалификация, Гонка 1, Гонка 2



Вид спорта: Автогонки
Дата/Год выпуска: 15.06.13
Язык комментариев: русский

Автор записи: SashaR.

Качество: DVB-S2 Remux
Формат видео: TS
Видео: AVC, 1920x1080, 16:9, 12.8 Mbps, 25 fps
Аудио: MP2, 192 Kbps, 48.0 kHz, 2 channels
G:GP3 2013. Ýòàï 02. (Circuit Ricardo Tormo) Èñïàíèÿ (HD)GP3 2013. Ýòàï 02. (Circuit Ricardo Tormo) Èñïàíèÿ. Êâàëèôèêàöèÿ (HD).ts
General #6
ID : 6 (0x6)
Complete name : G:GP3 2013. Ýòàï 02. (Circuit Ricardo Tormo) Èñïàíèÿ (HD)GP3 2013. Ýòàï 02. (Circuit Ricardo Tormo) Èñïàíèÿ. Êâàëèôèêàöèÿ (HD).ts
Format : MPEG-TS
File size : 3.21 GiB
Duration : 33mn 41s
Overall bit rate : 13.6 Mbps
Video #303
ID : 303 (0x12F)
Menu ID : 20103 (0x4E87)
Format : AVC
Format/Info : Advanced Video Codec
Format profile : High@L4.0
Format settings, CABAC : Yes
Format settings, ReFrames : 3 frames
Format settings, GOP : M=4, N=28
Codec ID : 27
Duration : 33mn 41s
Bit rate : 12.8 Mbps
Width : 1 920 pixels
Height : 1 080 pixels
Display aspect ratio : 16:9
Frame rate : 25.000 fps
Standard : Component
Color space : YUV
Chroma subsampling : 4:2:0
Bit depth : 8 bits
Scan type : Interlaced
Scan order : Top Field First
Bits/(Pixel*Frame) : 0.246
Stream size : 3.00 GiB (94%)
Color primaries : BT.709-5, BT.1361, IEC 61966-2-4, SMPTE RP177
Transfer characteristics : BT.709-5, BT.1361
Matrix coefficients : BT.709-5, BT.1361, IEC 61966-2-4 709, SMPTE RP177
Audio #403
ID : 403 (0x193)
Menu ID : 20103 (0x4E87)
Format : MPEG Audio
Format version : Version 1
Format profile : Layer 2
Codec ID : 4
Duration : 33mn 41s
Bit rate mode : Constant
Bit rate : 192 Kbps
Channel(s) : 2 channels
Sampling rate : 48.0 KHz
Compression mode : Lossy
Delay relative to video : 16ms
Stream size : 46.3 MiB (1%)
Language : Russian

00:33:41 + 00:39:31 + 00:31:42




   Похожие торренты   Торрент   Размер 
В этой теме нет новых непрочитанных сообщений. Формула 1. Сезон 2013. Этап 18. Гран-При США. 1-я, 2-я практика (2013) DVB-S2 Remux

0 | 2

22.93 ГБ

В этой теме нет новых непрочитанных сообщений. Формула 1. Сезон 2013. Этап 17. Гран-при Абу-Даби. 1-я, 2-я, 3-я практика, Квалификация (2013) DVB-S2 Remux

0 | 1

32.27 ГБ

В этой теме нет новых непрочитанных сообщений. Формула 1. Сезон 2013. Этап 19. Гран-При Бразилии. 1-я, 2-я, 3-я практика, Квалификация (2013) DVB-S2 Remux

0 | 2

33.97 ГБ

В этой теме нет новых непрочитанных сообщений. Формула 1. Сезон 2013. Этап 12. Гран При Гран-при Италии. Полный уик-энд (2013) HDTV 1080i

1 | 2

44.56 ГБ

В этой теме нет новых непрочитанных сообщений. Формула 1. Сезон 2013. Этап 12. Гран При Гран-при Италии. Гонка (2013) HDTVRip 720р

2 | 2

3.39 ГБ

В этой теме нет новых непрочитанных сообщений. Формула 1. Сезон 2013. Этап 12. Гран При Гран-при Италии. Квалификация (2013) HDTVRip 720p

0 | 1

1.79 ГБ

В этой теме нет новых непрочитанных сообщений. Формула 1. Сезон 2013. Этап 12. Гран При Гран-при Италии. 1-я практика (2013) HDTVRip

0 | 1

1.42 ГБ




Вы не можете начинать темы
Вы не можете отвечать на сообщения
Вы не можете редактировать свои сообщения
Вы не можете удалять свои сообщения
Вы не можете добавлять вложения

Перейти:  
 Вход
ppkBB3cker v.2 © 2008-2014 @ PPK
[ Time : 0.659s | 15 Queries | GZIP : Off ]

cron