img image001 image001 image001 image001 image001 image001 image001 image001 image001 image001 image001 image001 image001 image001 image001

Planets Sun Sun Sun
Статистика раздачи
Автор: Снежана | Размер: 12.76 ГБ | Добавлен: 03 авг 2013
Раздают: 0    Качают: 2
Скачать торрент
Скачать торрент
Описание торрента

СообщениеДобавлено: 03 авг 2013 

#77


Вид спорта: Футбол
Год выпуска: 18.06.2013
Язык комментариев: Русский (Владимир Стогниенко)
Участники: Бразилия - Япония

Описание: Чемпионат Европы 2013 (U21). Финал. Италия - Испания
Автор рипа.записи: MrDrax

Качество: HDTV
Продолжительность: 02:06:35

Формат: TS
Видео кодек: H.264
Аудио кодек: MP2
Свойства видео: 1920x1080, 25,000 кадров/сек, 13,2 Мбит/сек
Свойства аудио: 48,0 КГц, 2ch stereo, 192 Кбит/сек

2-4
Формат : MPEG-TS
Размер файла : 5,58 Гбайт
Продолжительность : 56 м.
Режим общего битрейта : Переменный
Общий поток : 14,1 Мбит/сек
Максимальный общий битрейт : 35,5 Мбит/сек
Видео
Идентификатор : 4113 (0x1011)
Идентификатор меню : 1 (0x1)
Формат : AVC
Формат/Информация : Advanced Video Codec
Профиль формата : High@L4.0
Параметр CABAC формата : Да
Параметр ReFrames формата : 3 кадра
Идентификатор кодека : 27
Продолжительность : 56 м.
Вид битрейта : Переменный
Битрейт : 13,2 Мбит/сек
Максимальный битрейт : 40,0 Мбит/сек
Ширина : 1920 пикселей
Высота : 1080 пикселей
Соотношение сторон : 16:9
Частота кадров : 25,000 кадров/сек
Стандарт вещания : Component
Цветовое пространство : YUV
Субдискретизация насыщенности : 4:2:0
Битовая глубина : 8 бит
Тип развёртки : Чересстрочная
Порядок развёртки : Верхнее поле первое
Бит/(Пиксели*Кадры) : 0.256
Размер потока : 5,22 Гбайт (94%)
Основные цвета : BT.709
Характеристики трансфера : BT.709
Коэффициенты матрицы : BT.709
Аудио
Идентификатор : 4352 (0x1100)
Идентификатор меню : 1 (0x1)
Формат : MPEG Audio
Версия формата : Version 1
Профиль формата : Layer 2
Идентификатор кодека : 4
Продолжительность : 56 м.
Вид битрейта : Постоянный
Битрейт : 192 Кбит/сек
Каналы : 2 канала
Частота : 48,0 КГц
Метод сжатия : С потерями
Размер потока : 77,5 Мбайт (1%)
Язык : Russian



   Похожие торренты   Торрент   Размер 
В этой теме нет новых непрочитанных сообщений. Футбол. Чемпионат Европы 2012. Финал. Испания - Италия (2012) HDTV 1080i

0 | 11

15.22 ГБ

В этой теме нет новых непрочитанных сообщений. Футбол. Чемпионат Европы 2013 (U21). Финал. Италия - Испания (2013) HDTVRip

2 | 1

1.77 ГБ

В этой теме нет новых непрочитанных сообщений. Футбол. Чемпионат Европы 2013 (U21). Финал. Италия - Испания (2013) HDTVRip 720p | 50 FPS

2 | 1

3.79 ГБ

В этой теме нет новых непрочитанных сообщений. Футбол. Чемпионат Европы 2016. 1/8 финала. Италия - Испания + Превью [Матч Футбол 1 HD] [27.06] (2016) HDTV 1080i

19 | 4

13.08 ГБ

В этой теме нет новых непрочитанных сообщений. Футбол. Лига Европы 2013-2014. Финал. Севилья (Испания) - Бенфика (Португалия) [14.05] (2014) HDTV 1080i

10 | 2

18.33 ГБ

В этой теме нет новых непрочитанных сообщений. Футбол. Чемпионат Европы 2012. Финал. Испания - Италия (2012) SATRip

8 | 7

1.81 ГБ

В этой теме нет новых непрочитанных сообщений. Футбол. Чемпионат Европы 2012. Финал. Испания - Италия (2012) SATRip-AVC

2 | 2

2.6 ГБ




Вы не можете начинать темы
Вы не можете отвечать на сообщения
Вы не можете редактировать свои сообщения
Вы не можете удалять свои сообщения
Вы не можете добавлять вложения

Перейти:  
Для Мосгорсуда, Роскомнадзора и рекламодателей: mosgorsud-torrent[собачка]yandex.ru
 Вход
ppkBB3cker v.2 © 2008-2014 @ PPK
[ Time : 0.033s | 14 Queries | GZIP : On ]

Торрент трекер RUTOR.IN, Не можете зайти на rutor.org? Какой новый адрес рутор? Какое зеркало рутор? Не работает rutor.org и зеркала? Тогда наш торрент специально для вас. Rutor.in неофициальное зеркало rutor. В случае если у Вас заблокирован rutor или вдруг Вы не можете на него зайти, то Вы без труда сможете скачать бесплатно и без рекламы последние новинки кино, игр, сериалов и прочего у нас, на Rutor.in. Не нужно использовать прокси, чтобы зайти на рутор, достаточно воспользоваться нашим ресурсом. Все новые фильмы, игры, сериалы, книги и музыка за 2013 и 2014 годы через торрент бесплатно. Скачивайте фильмы в хорошем качестве, игры для пк, xbox, playstation без регистрации. У нас вы найдете новые Зарубежные сериалы и Русские сериалы 2013, 2014, 2015 годов. Оставайтесь с нами, качайте любимые фильмы, игры, сериалы, книги и музыку.