img image001 image001 image001 image001 image001 image001 image001 image001 image001 image001 image001 image001 image001 image001 image001

Planets Sun Sun Sun
Статистика раздачи
Автор: Снежана | Размер: 5.44 ГБ | Добавлен: 03 авг 2013
Раздают: 0    Качают: 2
Скачать торрент
Скачать торрент
Описание торрента

СообщениеДобавлено: 03 авг 2013 

World Series by Renault. 2013. Этап 05. Moscow Raceway(Россия)

Вид спорта: Автогонки
Дата/Год выпуска: 22.06.13
Язык комментариев: русский (Руслан Гатаулин, Алексей Попов, Наталья Фабричнова)

Автор рипа: SashaR.

Качество: HDTVRip
Формат видео: MP4
Видео: H.264, 1280x720, 16:9, 4 268 Kbps, 50 fps
Аудио: AAC, 152 Kbps, 44.1 kHz, 2 channels

C:WSR 2.0. Moscow. Race 1.mp4
General
Complete name : C:WSR 2.0. Moscow. Race 1.mp4
Format : MPEG-4
Format profile : Base Media
Codec ID : isom
File size : 1.10 GiB
Duration : 36mn 47s
Overall bit rate mode : Variable
Overall bit rate : 4 268 Kbps
Encoded date : UTC 2013-06-22 15:35:04
Tagged date : UTC 2013-06-22 15:35:04
Writing application : Lavf51.12.1
Video #1
ID : 1
Format : AVC
Format/Info : Advanced Video Codec
Format profile : Baseline@L3.2
Format settings, CABAC : No
Format settings, ReFrames : 1 frame
Format settings, GOP : M=1, N=12
Codec ID : avc1
Codec ID/Info : Advanced Video Coding
Duration : 36mn 47s
Bit rate : 4 110 Kbps
Width : 1 280 pixels
Height : 720 pixels
Display aspect ratio : 16:9
Frame rate mode : Constant
Frame rate : 50.000 fps
Color space : YUV
Chroma subsampling : 4:2:0
Bit depth : 8 bits
Scan type : Progressive
Bits/(Pixel*Frame) : 0.089
Stream size : 1.06 GiB (96%)
Encoded date : UTC 2013-06-22 15:35:04
Tagged date : UTC 2013-06-22 15:35:04
Audio #2
ID : 2
Format : AAC
Format/Info : Advanced Audio Codec
Format profile : LC
Codec ID : 40
Duration : 36mn 46s
Bit rate mode : Variable
Bit rate : 152 Kbps
Channel(s) : 2 channels
Channel positions : Front: L R
Sampling rate : 44.1 KHz
Compression mode : Lossy
Stream size : 40.0 MiB (4%)
Language : Russian
Encoded date : UTC 2013-06-22 15:35:04
Tagged date : UTC 2013-06-22 15:35:04

00:36:47, 00:51:49




   Похожие торренты   Торрент   Размер 
В этой теме нет новых непрочитанных сообщений. Автоспорт. World Series by Renault. 2013. Этап 05. Moscow Raceway (Россия) [22.06] (2013) HDTV 1080i

0 | 2

16.67 ГБ

В этой теме нет новых непрочитанных сообщений. Автоспорт. World Series by Renault 3.5 2013. Этап 04 Спа-Франкоршам (2013) HDTVRip

0 | 2

2.65 ГБ

В этой теме нет новых непрочитанных сообщений. Автоспорт. World Touring Car Championship (WTCC). Этап 06. Moscow Raceway (2013) IPTV 1080i

0 | 2

5.96 ГБ

В этой теме нет новых непрочитанных сообщений. Автоспорт. World Series by Renault 3.5 2013. Этап 04 Спа-Франкоршам (2013) DVB-S2 Remux

0 | 2

9.78 ГБ

В этой теме нет новых непрочитанных сообщений. Мотоспорт. Супербайк / World Superbike (WSBK) 2012. Этап 11, Moscow Raceway (Россия). Гонка (2012) HDTVRip 720р

0 | 1

3.97 ГБ

В этой теме нет новых непрочитанных сообщений. Мотоспорт. World Superbike (WSBK) 2013. Этап 08, Гонка 1 Moscow Raceway (Россия). Гонка 1 (2013) DVB-S2 Remux

3 | 2

5.71 ГБ

В этой теме нет новых непрочитанных сообщений. Автоспорт. World Series by Renault 3,5. Aragon. Гонка (2013) DVB-S2 Remux

0 | 2

7.83 ГБ




Вы не можете начинать темы
Вы не можете отвечать на сообщения
Вы не можете редактировать свои сообщения
Вы не можете удалять свои сообщения
Вы не можете добавлять вложения

Перейти:  
Для Мосгорсуда, Роскомнадзора и рекламодателей: mosgorsud-torrent[собачка]yandex.ru
 Вход
ppkBB3cker v.2 © 2008-2014 @ PPK
[ Time : 0.035s | 15 Queries | GZIP : Off ]

Торрент трекер RUTOR.IN, Не можете зайти на rutor.org? Какой новый адрес рутор? Какое зеркало рутор? Не работает rutor.org и зеркала? Тогда наш торрент специально для вас. Rutor.in неофициальное зеркало rutor. В случае если у Вас заблокирован rutor или вдруг Вы не можете на него зайти, то Вы без труда сможете скачать бесплатно и без рекламы последние новинки кино, игр, сериалов и прочего у нас, на Rutor.in. Не нужно использовать прокси, чтобы зайти на рутор, достаточно воспользоваться нашим ресурсом. Все новые фильмы, игры, сериалы, книги и музыка за 2013 и 2014 годы через торрент бесплатно. Скачивайте фильмы в хорошем качестве, игры для пк, xbox, playstation без регистрации. У нас вы найдете новые Зарубежные сериалы и Русские сериалы 2013, 2014, 2015 годов. Оставайтесь с нами, качайте любимые фильмы, игры, сериалы, книги и музыку.
cron