img image001 image001 image001 image001 image001 image001 image001 image001 image001 image001 image001 image001 image001 image001 image001

Planets Sun Sun Sun
Статистика раздачи
Автор: Снежана | Размер: 1.46 ГБ | Добавлен: 03 авг 2013
Раздают: 13    Качают: 7
Скачать торрент
Скачать торрент
Описание торрента

СообщениеДобавлено: 03 авг 2013 

#77

Информация о фильме
Название: Шри Шри Йога Падмасадана
Год выпуска: 2012
Жанр: Видеоурок
Продолжительность: 01:05:20
Качество видео: DVDRip
Видеокодек: H.264
Битрейт видео: ~3000 kbps avg
Размер кадра: 720x576 (1.25:1)
Аудиокодек: MP3, 2ch
Битрейт аудио: 192.00 kbps avg

Всем кто интересуется документальной информацией и информацией для разума и ума и своего совершенствования. Рекомендую посетить мои раздачи:
Описание:
Падмасадана - это комплекс из асан, пранаямы и медитации, разработанный Шри Шри Рави Шанкаром. Падма означает лотос, а садана - это практика. По преданию, Божественная Мать сидит на сидении, которое состоит из пяти слоев. Первый слой - это черепаха, символизирующая стабильность. Второй слой - змея, как олицетворение осознанности. Третий слой - это лев, символ могущества и милости. Надо львом находится сиддха, совершенный мудрец. А над мудрецом расположен лотос, олицетворение полного расцветания. Когда наша практика содержит все эти пять качеств: стабильность, осознанность, милость, совершенство и расцветание, тогда Божественное раскрывается в нас, и это - падмасадана. Падмасадану очень хорошо выполнять перед Сударшан Крией, для углубления медитативного опыта. Эта практика может выполняться и утром и вечером. На диске представлен курс детального обучения от Каши Динеша и Камлеш Барвал, а также полный управляемый комплекс для ежедневного применения с медитацией от Шри Шри.

Для тех кто некогда не практиковал йогу, рекомендую начать с вот этого видео:
Повествование о хатха йоге DVDRip
Вадим Запорожцев | Повествование о хатха йоге DVDRip





General
Полное имя Шри Шри Йога_Падмасадана�1_Падмасадана - Обучение.avi
Формат : AVI
Формат/Информация : Audio Video Interleave
Размер файла : 503 MiB
Продолжительность : 21mn 54s
Общий поток : 3 211 Kbps

Video
Идентификатор : 0
Формат : AVC
Формат/Информация : Advanced Video Codec
Профиль формата : Main@L3.0
Параметр CABAC формата : Yes
Параметр ReFrames формата : 1 frame
Параметр GOP формата : M=1, N=25
Идентификатор кодека : X264
Идентификатор кодека/Информация : XiWave GNU GPL x264 MPEG-4
Продолжительность : 21mn 54s
Битрейт : 3 007 Kbps
Ширина : 720 pixels
Высота : 576 pixels
Соотношение сторон : 4:3
Частота кадров : 25.000 fps
Стандарт вещания : PAL
Цветовое пространство : YUV
Субдискретизация насыщенности : 4:2:0
Битовая глубина : 8 bits
Тип развёртки : Progressive
Бит/(Пиксели*Кадры) : 0.290
Размер потока : 471 MiB (94%)

Audio
Идентификатор : 1
Формат : MPEG Audio
Версия формата : Version 1
Профиль формата : Layer 3
Идентификатор кодека : 55
Идентификатор кодека/Подсказка : MP3
Продолжительность : 21mn 54s
Вид битрейта : Constant
Битрейт : 192 Kbps
Каналы : 2 channels
Частота : 44.1 KHz
Метод сжатия : Lossy
Размер потока : 30.1 MiB (6%)
Выравнивание : Split accross interleaves
Продолжительность промежутка : 26 ms (0.65 video frame)
Время предзагрузки промежутка : 310 ms
General
Полное имя :02_Падмасадана - Ежедневная практика.avi
Формат : AVI
Формат/Информация : Audio Video Interleave
Размер файла : 996 MiB
Продолжительность : 43mn 26s
Общий поток : 3 205 Kbps

Video
Идентификатор : 0
Формат : AVC
Формат/Информация : Advanced Video Codec
Профиль формата : Main@L3.0
Параметр CABAC формата : Yes
Параметр ReFrames формата : 1 frame
Параметр GOP формата : M=1, N=25
Идентификатор кодека : X264
Идентификатор кодека/Информация : XiWave GNU GPL x264 MPEG-4
Продолжительность : 43mn 26s
Битрейт : 3 001 Kbps
Ширина : 720 pixels
Высота : 576 pixels
Соотношение сторон : 4:3
Частота кадров : 25.000 fps
Стандарт вещания : PAL
Цветовое пространство : YUV
Субдискретизация насыщенности : 4:2:0
Битовая глубина : 8 bits
Тип развёртки : Progressive
Бит/(Пиксели*Кадры) : 0.289
Размер потока : 932 MiB (94%)

Audio
Идентификатор : 1
Формат : MPEG Audio
Версия формата : Version 1
Профиль формата : Layer 3
Идентификатор кодека : 55
Идентификатор кодека/Подсказка : MP3
Продолжительность : 43mn 26s
Вид битрейта : Constant
Битрейт : 192 Kbps
Каналы : 2 channels
Частота : 44.1 KHz
Метод сжатия : Lossy
Размер потока : 59.7 MiB (6%)
Выравнивание : Split accross interleaves
Продолжительность промежутка : 26 ms (0.65 video frame)
Время предзагрузки промежутка : 309 ms









   Похожие торренты   Торрент   Размер 
В этой теме нет новых непрочитанных сообщений. Михаил Баданин - Йога - Основной инстинкт (2012) PDF

72 | 6

18.63 МБ

В этой теме нет новых непрочитанных сообщений. Йога для беременных (2008) DVDRip

294 | 8

1.43 ГБ

В этой теме нет новых непрочитанных сообщений. Йога / Yoga Hakwon (2009) DVDRip

4 | 40

700.96 МБ

В этой теме нет новых непрочитанных сообщений. Йога - обучение / Yoga (2006) DVDRip

41 | 4

1.01 ГБ

В этой теме нет новых непрочитанных сообщений. Свами Венкатесананда - Йога Вашишта (Вашиштха, Васишта, Васиштха) (2012) MP3

16 | 7

2.94 ГБ

В этой теме нет новых непрочитанных сообщений. Йога-стретчинг: курс для начинающих (2008) DVDRip

941 | 20

500.83 МБ

В этой теме нет новых непрочитанных сообщений. Йога для красивой и здоровой груди (2009) DVDRip

38 | 8

500.04 МБ




Вы не можете начинать темы
Вы не можете отвечать на сообщения
Вы не можете редактировать свои сообщения
Вы не можете удалять свои сообщения
Вы не можете добавлять вложения

Перейти:  
Для Мосгорсуда, Роскомнадзора и рекламодателей: mosgorsud-torrent[собачка]yandex.ru
 Вход
ppkBB3cker v.2 © 2008-2014 @ PPK
[ Time : 0.017s | 15 Queries | GZIP : Off ]

Торрент трекер RUTOR.IN, Не можете зайти на rutor.org? Какой новый адрес рутор? Какое зеркало рутор? Не работает rutor.org и зеркала? Тогда наш торрент специально для вас. Rutor.in неофициальное зеркало rutor. В случае если у Вас заблокирован rutor или вдруг Вы не можете на него зайти, то Вы без труда сможете скачать бесплатно и без рекламы последние новинки кино, игр, сериалов и прочего у нас, на Rutor.in. Не нужно использовать прокси, чтобы зайти на рутор, достаточно воспользоваться нашим ресурсом. Все новые фильмы, игры, сериалы, книги и музыка за 2013 и 2014 годы через торрент бесплатно. Скачивайте фильмы в хорошем качестве, игры для пк, xbox, playstation без регистрации. У нас вы найдете новые Зарубежные сериалы и Русские сериалы 2013, 2014, 2015 годов. Оставайтесь с нами, качайте любимые фильмы, игры, сериалы, книги и музыку.
cron