img image001 image001 image001 image001 image001 image001 image001 image001 image001 image001 image001 image001 image001 image001 image001

Planets Sun Sun Sun
Статистика раздачи
Автор: Снежана | Размер: 2.21 ГБ | Добавлен: 02 авг 2013
Раздают: 0    Качают: 1
Скачать торрент
Скачать торрент
Описание торрента

СообщениеДобавлено: 02 авг 2013 

Формула 1 / Сезон 2013 / Этап 08 / Гран При Великобритании/ 2-я практика

Вид спорта: Формула-1
Участники: Пилоты команд Формулы-1
Дата/Год выпуска: 28/06/2013
Язык комментариев: Русский (В. Башмаков)
Канал:
Описание: Восьмой этап чемпионата мира по автогонкам в классе "Формула-1" - Гран-при Великобритании - стартует в пятницу на одном из старейших автодромов "Королевских гонок", расположенном в английском Сильверстоуне.

Гран-при Великобритании еще не успел начаться, но главное событие уик-энда уже, похоже, произошло. Марк Уэббер объявил о завершении карьеры в "Формуле-1" по окончании сезона и подписании контракта с командой "Порше", выступающей в гонках на выносливость LMP1. Австралиец сразу же пресек любые разговоры о том, что это решение связано со скандалом на Гран-при Малайзии, когда его напарник немец Себастьян Феттель, который недавно продлил контракт с "Ред Булл" до 2015 года, не выполнил приказ команды и обогнал Уэббера в борьбе за первое место.

После семи этапов чемпионата уверенно лидирует "Ред Булл" во главе с трехкратным чемпионом "Ф-1" Феттелем, который три недели назад впервые в карьере смог выиграть канадский этап. На третьем месте в Кубке конструкторов теперь располагается "Мерседес", который за два последних этапа смог догнать и опередить "Лотус", удачно выступавший в начале сезона. [size=14](С)
Автор записи: БэстЛайв

IPTVRemux
Видео: MPEG2, 720x576i (16:9) 25 FPS, 2 964 Kbps
Аудио: MPEG Layer-II Stereo 192 kbps 48.0 kHz
01:38:27

Formula1.2013.Round08.Great.Britain.FP2.Sport1_BL.mpg
Format : MPEG-PS
File size : 2.21 GiB
Duration : 1h 38mn
Overall bit rate : 3 220 Kbps
Writing library : (c) 1998-2010 Womble Multimedia, Inc. / MPEG Video Wizard DVD 5.0.0.114 (01/2010) / Nov 13 2010

Video
ID : 224 (0xE0)
Format : MPEG Video
Format version : Version 2
Format profile : Main@Main
Format settings, BVOP : Yes
Format settings, Matrix : Default
Duration : 1h 38mn
Bit rate mode : Variable
Bit rate : 2 964 Kbps
Nominal bit rate : 15.0 Mbps
Width : 720 pixels
Height : 576 pixels
Display aspect ratio : 16:9
Frame rate : 25.000 fps
Standard : PAL
Color space : YUV
Chroma subsampling : 4:2:0
Bit depth : 8 bits
Scan type : Interlaced
Scan order : Top Field First
Compression mode : Lossy
Bits/(Pixel*Frame) : 0.286
Stream size : 2.04 GiB (92%)
Writing library : (c) 1998-2010 Womble Multimedia, Inc. / MPEG Video Wizard DVD 5.0.0.114 (01/2010) / Nov 13 2010

Audio
ID : 192 (0xC0)
Format : MPEG Audio
Format version : Version 1
Format profile : Layer 2
Duration : 1h 38mn
Bit rate mode : Constant
Bit rate : 192 Kbps
Channel(s) : 2 channels
Sampling rate : 48.0 KHz
Compression mode : Lossy
Stream size : 135 MiB (6%)




   Похожие торренты   Торрент   Размер 
В этой теме нет новых непрочитанных сообщений. Формула 1. Сезон 2013. Этап 08. Гран При Великобритании. 1-я практика [Спорт 1] (2013) IPTVRemux

0 | 1

2.07 ГБ

В этой теме нет новых непрочитанных сообщений. Формула 1. Сезон 2013. Этап 03. Гран-при Китая. 2-я практика [Спорт 1 HD] (2013) IPTVRemux

1 | 1

2.19 ГБ

В этой теме нет новых непрочитанных сообщений. Формула 1. Сезон 2013. Этап 07. Гран-При Канады. Практика 03 [Спорт 1 HD] (2013) IPTVRemux

0 | 2

1.42 ГБ

В этой теме нет новых непрочитанных сообщений. Формула 1. Сезон 2013. Этап 07. Гран-При Канады. Практика 02 [Спорт 1 HD] (2013) IPTVRemux

0 | 2

2.19 ГБ

В этой теме нет новых непрочитанных сообщений. Формула 1. Сезон 2013. Этап 03. Гран-при Китая. 3-я практика [Спорт 1 HD] (2013) IPTVRemux

0 | 2

1.57 ГБ

В этой теме нет новых непрочитанных сообщений. Формула 1. Сезон 2013. Этап 07. Гран-При Канады. Практика 01 [Спорт 1 HD] (2013) IPTVRemux

0 | 2

2.01 ГБ

В этой теме нет новых непрочитанных сообщений. Формула 1. Сезон 2013. Этап 08. Гран При Великобритании. 1-я практика [Спорт 1] (2013) HDTVRip

0 | 1

1.39 ГБ




Вы не можете начинать темы
Вы не можете отвечать на сообщения
Вы не можете редактировать свои сообщения
Вы не можете удалять свои сообщения
Вы не можете добавлять вложения

Перейти:  
Для Мосгорсуда, Роскомнадзора и рекламодателей: mosgorsud-torrent[собачка]yandex.ru
 Вход
ppkBB3cker v.2 © 2008-2014 @ PPK
[ Time : 0.040s | 15 Queries | GZIP : Off ]

cron