img image001 image001 image001 image001 image001 image001 image001 image001 image001 image001 image001 image001 image001 image001 image001

Planets Sun Sun Sun
Статистика раздачи
Автор: Снежана | Размер: 3.72 ГБ | Добавлен: 02 авг 2013
Раздают: 0    Качают: 2
Скачать торрент
Скачать торрент
Описание торрента

СообщениеДобавлено: 02 авг 2013 

Формула 1 2013 – Этап 8 – Великобритания – Квалификация (Intro+Live)
BBCHD.РОССИЯ2 – 720p





Год выпуска: 2013
Вид спорта: Formula 1 (F1)
Участники: Пилоты Ф1 2013 и специалисты команд
Продолжительность: 40 мин + 1 час 24 мин
Комментарий: Профессиональный (многоголосый)
Язык комментариев:
русский: А. Попов. Н. Фабричнова (по умолчанию)
(началинается с 00:00:48)
английский: Cьюзи Пери, Э. Джордан, Д. Култхард, Б. Эдвардс
Содержание:
Великобритания. Сильверстоун – квалификация.
Intro - интервью, сюжеты, аналитика и прогнозы на квалификацию.
Live - сама квалификация в полном объеме, включая пресс-конференцию.

Исходник от: Hannibal [Original uploader] : thanks and appreciation to him

Русский комментарий взят из релиза: спасибо baggo17879.




Качество: HDTVRip
Формат: MKV
Видео кодек: AVC
Аудио кодек: AC3/MP3




Do not upload this release and torrent-file (.torrent) to other sites!
Внимание!
Просьба НЕ загружайте данный релиз на другие торрент-трекеры, особенно зарубежные.

Просьба обусловлена объективными причинами, поэтому отнеситесь с пониманием!
Нарушение просьбы может привести к серьезным проблемам с созданием данных раздач в дальнейшем


"Тех. данные:"
Format : AVC
Format/Info : Advanced Video Codec
Format profile : High@L4.1
Format settings, CABAC : Yes
Format settings, ReFrames : 4 frames
Codec ID : V_MPEG4/ISO/AVC
Duration : 1h 24mn
Bit rate : 3 933 Kbps
Width : 1 280 pixels
Height : 720 pixels
Display aspect ratio : 16:9
Frame rate : 25.000 fps
Color space : YUV
Chroma subsampling : 4:2:0
Bit depth : 8 bits
Scan type : Progressive
Bits/(Pixel*Frame) : 0.171
Audio #1
ID : 2
Format : MPEG Audio
Format version : Version 1
Format profile : Layer 3
Mode : Joint stereo
Codec ID : A_MPEG/L3
Codec ID/Hint : MP3
Duration : 1h 24mn
Bit rate mode : Constant
Bit rate : 128 Kbps
Channel(s) : 2 channels
Sampling rate : 48.0 KHz
Compression mode : Lossy
Stream size : 76.9 MiB (3%)
Title : Russia2
Language : Russian
Default : Yes
Forced : No

Audio #2
ID : 3
Format : AC-3
Format/Info : Audio Coding 3
Mode extension : CM (complete main)
Format settings, Endianness : Big
Codec ID : A_AC3
Duration : 1h 24mn
Bit rate mode : Constant
Bit rate : 192 Kbps
Channel(s) : 2 channels
Channel positions : Front: L R
Sampling rate : 48.0 KHz
Bit depth : 16 bits
Compression mode : Lossy
Delay relative to video : 29ms
Stream size : 115 MiB (4%)
Title : BBC
Language : English
Default : No
Forced : No



"Скриншоты:"



   Похожие торренты   Торрент   Размер 
В этой теме нет новых непрочитанных сообщений. Формула 1. Сезон 2013. Этап 08. Гран При Великобритании. Квалификация [Россия 2] (2013) SATRip

0 | 1

982.38 МБ

В этой теме нет новых непрочитанных сообщений. Формула 1. Сезон 2013. Этап 08. Гран При Великобритании. Квалификация (2013) HDTV 1080i от MediaClub

0 | 1

4.48 ГБ

В этой теме нет новых непрочитанных сообщений. Формула 1. Сезон 2013. Этап 08. Гран При Великобритании. Гонка [Россия 2] (2013) SATRip

0 | 1

2.47 ГБ

В этой теме нет новых непрочитанных сообщений. Формула 1. Сезон 2013. Этап 12. Гран При Гран-при Италии. Квалификация (2013) HDTVRip 720p

0 | 1

1.79 ГБ

В этой теме нет новых непрочитанных сообщений. Формула 1. Сезон 2013. Этап 07. Гран-При Канады. Квалификация [Россия 2] (2013) SATRip

7 | 2

769.84 МБ

В этой теме нет новых непрочитанных сообщений. Формула 1. Сезон 2013. Этап 03. Гран-при Китая. Квалификация [Россия 2] (2013) SATRip

8 | 2

1.29 ГБ

В этой теме нет новых непрочитанных сообщений. Формула 1. Сезон 2013. Этап 01. Гран-при Австралии. Квалификация [Россия 2] (2013) SATRip

1 | 1

2.19 ГБ




Вы не можете начинать темы
Вы не можете отвечать на сообщения
Вы не можете редактировать свои сообщения
Вы не можете удалять свои сообщения
Вы не можете добавлять вложения

Перейти:  
Для Мосгорсуда, Роскомнадзора и рекламодателей: mosgorsud-torrent[собачка]yandex.ru
 Вход
ppkBB3cker v.2 © 2008-2014 @ PPK
[ Time : 0.044s | 15 Queries | GZIP : Off ]

cron