img image001 image001 image001 image001 image001 image001 image001 image001 image001 image001 image001 image001 image001 image001 image001

Planets Sun Sun Sun
Статистика раздачи
Автор: Снежана | Размер: 29.84 ГБ | Добавлен: 02 авг 2013
Раздают: 0    Качают: 2
Скачать торрент
Скачать торрент
Описание торрента

СообщениеДобавлено: 02 авг 2013 

Формула 1 / Сезон 2013 / Этап 08 / Гран При Великобритании/ 1-я и 2-я практика, Квалификация, Гонка

Вид спорта: Формула-1
Участники: Пилоты команд Формулы-1
Дата/Год выпуска: 28/06/2013
Язык комментариев: Русский
Канал:
Описание: Восьмой этап чемпионата мира по автогонкам в классе "Формула-1" - Гран-при Великобритании - стартует в пятницу на одном из старейших автодромов "Королевских гонок", расположенном в английском Сильверстоуне.

Гран-при Великобритании еще не успел начаться, но главное событие уик-энда уже, похоже, произошло. Марк Уэббер объявил о завершении карьеры в "Формуле-1" по окончании сезона и подписании контракта с командой "Порше", выступающей в гонках на выносливость LMP1. Австралиец сразу же пресек любые разговоры о том, что это решение связано со скандалом на Гран-при Малайзии, когда его напарник немец Себастьян Феттель, который недавно продлил контракт с "Ред Булл" до 2015 года, не выполнил приказ команды и обогнал Уэббера в борьбе за первое место.

После семи этапов чемпионата уверенно лидирует "Ред Булл" во главе с трехкратным чемпионом "Ф-1" Феттелем, который три недели назад впервые в карьере смог выиграть канадский этап. На третьем месте в Кубке конструкторов теперь располагается "Мерседес", который за два последних этапа смог догнать и опередить "Лотус", удачно выступавший в начале сезона. [size=14](С)
Автор записи: SashaR.

Качество: DVB-S2 Remux
Формат видео: TS
Видео: AVC, 1920x1080, 16:9, 11.6 Mbps, 25 fps
Аудио: MP2, 192 Kbps, 48.0 kHz, 2 channels
E:Ôîðìóëà 1 . Ñåçîí 2013 . Ýòàï 08 . Ãðàí Ïðè Âåëèêîáðèòàíèè(Ñïîðò 1 HD)1-ÿ ïðàêòèêà.ts
General #6
ID : 6 (0x6)
Complete name : E:Ôîðìóëà 1 . Ñåçîí 2013 . Ýòàï 08 . Ãðàí Ïðè Âåëèêîáðèòàíèè(Ñïîðò 1 HD)1-ÿ ïðàêòèêà.ts
Format : MPEG-TS
File size : 8.51 GiB
Duration : 1h 38mn
Overall bit rate : 12.4 Mbps
Video #303
ID : 303 (0x12F)
Menu ID : 20103 (0x4E87)
Format : AVC
Format/Info : Advanced Video Codec
Format profile : High@L4.0
Format settings, CABAC : Yes
Format settings, ReFrames : 3 frames
Codec ID : 27
Duration : 1h 38mn
Bit rate : 11.6 Mbps
Width : 1 920 pixels
Height : 1 080 pixels
Display aspect ratio : 16:9
Frame rate : 25.000 fps
Standard : Component
Color space : YUV
Chroma subsampling : 4:2:0
Bit depth : 8 bits
Scan type : Interlaced
Scan order : Top Field First
Bits/(Pixel*Frame) : 0.223
Stream size : 7.95 GiB (93%)
Color primaries : BT.709-5, BT.1361, IEC 61966-2-4, SMPTE RP177
Transfer characteristics : BT.709-5, BT.1361
Matrix coefficients : BT.709-5, BT.1361, IEC 61966-2-4 709, SMPTE RP177
Audio #403
ID : 403 (0x193)
Menu ID : 20103 (0x4E87)
Format : MPEG Audio
Format version : Version 1
Format profile : Layer 2
Codec ID : 4
Duration : 1h 38mn
Bit rate mode : Constant
Bit rate : 192 Kbps
Channel(s) : 2 channels
Sampling rate : 48.0 KHz
Compression mode : Lossy
Delay relative to video : 52ms
Stream size : 135 MiB (2%)
Language : Russian

01:38:19 + 01:38:28 + 01:07:58 + 01:01:32




   Похожие торренты   Торрент   Размер 
В этой теме нет новых непрочитанных сообщений. Формула 1. Сезон 2013. Этап 08. Гран При Великобритании. 2-я практика [Спорт 1] (2013) IPTVRemux

0 | 1

2.21 ГБ

В этой теме нет новых непрочитанных сообщений. Формула 1. Сезон 2013. Этап 08. Гран При Великобритании. 1-я практика [Спорт 1] (2013) HDTVRip

0 | 1

1.39 ГБ

В этой теме нет новых непрочитанных сообщений. Формула 1. Сезон 2013. Этап 08. Гран При Великобритании. 1-я практика [Спорт 1] (2013) IPTVRemux

0 | 1

2.07 ГБ

В этой теме нет новых непрочитанных сообщений. Формула 1. Сезон 2013. Этап 08. Гран При Великобритании. Гонка [Спорт 1 HD] (2013) HDTVRip 720р | 50fps

16 | 1

3.65 ГБ

В этой теме нет новых непрочитанных сообщений. Формула 1. Сезон 2013. Этап 04. Гран При Бахрейна. Полный уик-энд [Спорт 1 HD] (2013) HDTVRip

2 | 2

5.95 ГБ

В этой теме нет новых непрочитанных сообщений. Формула 1. Сезон 2013. Этап 07. Гран-При Канады. Полный уик-энд [Спорт 1] (2013) HDTVRip

1 | 4

5.65 ГБ

В этой теме нет новых непрочитанных сообщений. Формула 1. Сезон 2013. Этап 06. Гран-При Монако. Полный уик-энд [Спорт 1 HD] (2013) HDTV 1080i

0 | 2

46.23 ГБ




Вы не можете начинать темы
Вы не можете отвечать на сообщения
Вы не можете редактировать свои сообщения
Вы не можете удалять свои сообщения
Вы не можете добавлять вложения

Перейти:  
Для Мосгорсуда, Роскомнадзора и рекламодателей: mosgorsud-torrent[собачка]yandex.ru
 Вход
ppkBB3cker v.2 © 2008-2014 @ PPK
[ Time : 0.042s | 15 Queries | GZIP : Off ]

Торрент трекер RUTOR.IN, Не можете зайти на rutor.org? Какой новый адрес рутор? Какое зеркало рутор? Не работает rutor.org и зеркала? Тогда наш торрент специально для вас. Rutor.in неофициальное зеркало rutor. В случае если у Вас заблокирован rutor или вдруг Вы не можете на него зайти, то Вы без труда сможете скачать бесплатно и без рекламы последние новинки кино, игр, сериалов и прочего у нас, на Rutor.in. Не нужно использовать прокси, чтобы зайти на рутор, достаточно воспользоваться нашим ресурсом. Все новые фильмы, игры, сериалы, книги и музыка за 2013 и 2014 годы через торрент бесплатно. Скачивайте фильмы в хорошем качестве, игры для пк, xbox, playstation без регистрации. У нас вы найдете новые Зарубежные сериалы и Русские сериалы 2013, 2014, 2015 годов. Оставайтесь с нами, качайте любимые фильмы, игры, сериалы, книги и музыку.
cron