img image001 image001 image001 image001 image001 image001 image001 image001 image001 image001 image001 image001 image001 image001 image001

Planets Sun Sun Sun
Статистика раздачи
Автор: Снежана | Размер: 7.67 ГБ | Добавлен: 02 авг 2013
Раздают: 0    Качают: 2
Скачать торрент
Скачать торрент
Описание торрента

СообщениеДобавлено: 02 авг 2013 

WTCC 2013. Этап 07. Circuito da Boavista (Porto)



Вид спорта: Автогонки
Дата/Год выпуска: 30.06.13
Язык комментариев: русский (Александр Кабановский), английский

Автор записи: SashaR.

Качество: DVB-S2 Remux
Формат видео: TS
Видео: AVC, 1920x1080, 16:9, 9 535 Kbps, 25 fps
Аудио: MP2, 192 Kbps, 48.0 kHz, 2 channels
E:WTCC 2013. Ýòàï 07. Circuito da Boavista (Porto)Race 1.ts
General #6
ID : 6 (0x6)
Complete name : E:WTCC 2013. Ýòàï 07. Circuito da Boavista (Porto)Race 1.ts
Format : MPEG-TS
File size : 3.98 GiB
Duration : 54mn 38s
Overall bit rate : 10.4 Mbps
Video #324
ID : 324 (0x144)
Menu ID : 12104 (0x2F48)
Format : AVC
Format/Info : Advanced Video Codec
Format profile : High@L4.0
Format settings, CABAC : Yes
Format settings, ReFrames : 3 frames
Codec ID : 27
Duration : 54mn 37s
Bit rate : 9 535 Kbps
Width : 1 920 pixels
Height : 1 080 pixels
Display aspect ratio : 16:9
Frame rate : 25.000 fps
Standard : Component
Color space : YUV
Chroma subsampling : 4:2:0
Bit depth : 8 bits
Scan type : Interlaced
Scan order : Top Field First
Bits/(Pixel*Frame) : 0.184
Stream size : 3.64 GiB (91%)
Color primaries : BT.709-5, BT.1361, IEC 61966-2-4, SMPTE RP177
Transfer characteristics : BT.709-5, BT.1361
Matrix coefficients : BT.709-5, BT.1361, IEC 61966-2-4 709, SMPTE RP177
Audio #404
ID : 404 (0x194)
Menu ID : 12104 (0x2F48)
Format : MPEG Audio
Format version : Version 1
Format profile : Layer 2
Codec ID : 4
Duration : 54mn 38s
Bit rate mode : Constant
Bit rate : 192 Kbps
Channel(s) : 2 channels
Sampling rate : 48.0 KHz
Compression mode : Lossy
Delay relative to video : 44ms
Stream size : 75.0 MiB (2%)
Language : Russian
Language, more info : Clean effects
Audio #424
ID : 424 (0x1A8)
Menu ID : 12104 (0x2F48)
Format : MPEG Audio
Format version : Version 1
Format profile : Layer 2
Codec ID : 4
Duration : 54mn 38s
Bit rate mode : Constant
Bit rate : 192 Kbps
Channel(s) : 2 channels
Sampling rate : 48.0 KHz
Compression mode : Lossy
Delay relative to video : 20ms
Stream size : 75.0 MiB (2%)
Language : English
Language, more info : Clean effects

00:54:38 + 00:50:18




   Похожие торренты   Торрент   Размер 
В этой теме нет новых непрочитанных сообщений. Автоспорт. World Touring Car Championship (WTCC) 2013. Этап 07. Porto (2013) IPTV 1080i

0 | 1

6.78 ГБ

В этой теме нет новых непрочитанных сообщений. Автоспорт. WTCC. Этап 1. Монца. Квалификация [23.02] (2013) DVB-S2 Remux

0 | 2

4.92 ГБ

В этой теме нет новых непрочитанных сообщений. Автоспорт. WTCC 2013. GP2/GP3 2013. Этап 07 Венгрия. Hungaroring. Спорт 1 HD [27-28.06] (2013) DVB-S2 Remux

0 | 3

22.29 ГБ

В этой теме нет новых непрочитанных сообщений. Автоспорт. World Touring Car Championship (WTCC). Этап 8. Аргентина. Разминка, Гонка 1, Гонка 2 (2013) DVB-S2 Remux

1 | 2

8.15 ГБ

В этой теме нет новых непрочитанных сообщений. Автоспорт. World Touring Car Championship (WTCC). Этап 06. Moscow Raceway (2013) IPTV 1080i

0 | 2

5.96 ГБ

В этой теме нет новых непрочитанных сообщений. Автоспорт. WTCC. Round 02 . Marrakech (Morocco). Гонка 02 (2013) DVB-S2 Remux

0 | 2

5.11 ГБ

В этой теме нет новых непрочитанных сообщений. Автоспорт. World Touring Car Championship (WTCC) 2014. Этап 05. Salzburg. Гонки 1 и 2 (2014) DVB-S2 Remux

0 | 2

5.86 ГБ




Вы не можете начинать темы
Вы не можете отвечать на сообщения
Вы не можете редактировать свои сообщения
Вы не можете удалять свои сообщения
Вы не можете добавлять вложения

Перейти:  
Для Мосгорсуда, Роскомнадзора и рекламодателей: mosgorsud-torrent[собачка]yandex.ru
 Вход
ppkBB3cker v.2 © 2008-2014 @ PPK
[ Time : 0.037s | 15 Queries | GZIP : Off ]

cron