img image001 image001 image001 image001 image001 image001 image001 image001 image001 image001 image001 image001 image001 image001 image001

Planets Sun Sun Sun
Статистика раздачи
Автор: Снежана | Размер: 2.66 ГБ | Добавлен: 03 авг 2013
Раздают: 0    Качают: 1
Скачать торрент
Скачать торрент
Описание торрента

СообщениеДобавлено: 03 авг 2013 

ХХVI Летняя Универсиада в Казани 2013.
Бадминтон. Мужчины, женщины. Финалы



Год выпуска: 2013
Вид спорта: Бадминтон
Комментарий: Профессиональный одноголосый
Язык комментариев: Русский
Общая продолжительность: 03:16:07
Описание: Финальные матчи в одиночном и парном разрядах по бадминтону на Универсиаде 2013 в Казани.

Автор рипа: sanchez2011

Качество: IPTVRip
Формат: AVI
Видео кодек: XviD
Аудио кодек: MP3
Видео: MPEG-4 Visual (H263) 704x448 (1.571) 25.00fps 1800kbps
Аудио: MPEG Audio Layer 3 48000Hz stereo 128kbps


GeneralComplete name : C:UsersadminDesktopБадминтон. УниверсиадаWD F.aviFormat : AVIFormat/Info : Audio Video InterleaveFile size : 1.24 GiBDuration : 1h 31mnOverall bit rate : 1 938 KbpsWriting application : VirtualDubMod 1.5.10.2 (build 2540/release)Writing library : VirtualDubMod build 2540/release

VideoID : 0Format : MPEG-4 VisualFormat profile : Advanced Simple@L5Format settings, BVOP : 2Format settings, QPel : NoFormat settings, GMC : No warppointsFormat settings, Matrix : Default (H.263)Muxing mode : Packed bitstreamCodec ID : XVIDCodec ID/Hint : XviDDuration : 1h 31mnBit rate : 1 801 KbpsWidth : 704 pixelsHeight : 448 pixelsDisplay aspect ratio : 1.571Frame rate : 25.000 fpsColor space : YUVChroma subsampling : 4:2:0Bit depth : 8 bitsScan type : ProgressiveCompression mode : LossyBits/(Pixel*Frame) : 0.228Stream size : 1.15 GiB (93%)Writing library : XviD 64

AudioID : 1Format : MPEG AudioFormat version : Version 1Format profile : Layer 3Mode : Joint stereoMode extension : MS StereoCodec ID : 55Codec ID/Hint : MP3Duration : 1h 31mnBit rate mode : ConstantBit rate : 128 KbpsChannel(s) : 2 channelsSampling rate : 48.0 KHzCompression mode : LossyStream size : 83.6 MiB (7%)Alignment : Aligned on interleavesInterleave, duration : 40 ms (1.00 video frame)Interleave, preload duration : 504 ms

1. MS F Gao Huan CHN - Tanongsak Saensomboonsuk THA
2. WD F Luo Yu, Tian Qing CHN - Chang Ye Na, Kim Soyoung KOR
3. MD F Владимир Иванов, Иван Созонов RUS - Ko Sunghyun, Lee Yongdae KOR

Общая продолжительность: 03:16:07
1. MS F Gao Huan CHN - Tanongsak Saensomboonsuk THA (00:51:15)
(0-2) 12:21, 17:21
2. WD F Luo Yu, Tian Qing CHN - Chang Ye Na, Kim Soyoung KOR (01:31:18)
(1-2) 25:27, 21:15, 21:23
3. MD F Владимир Иванов, Иван Созонов RUS - Ko Sunghyun, Lee Yongdae KOR (00:53:32)
(1-2) 21:13, 13:21, 13:21



   Похожие торренты   Торрент   Размер 
В этой теме нет новых непрочитанных сообщений. ХХVII Летняя Универсиада в Казани 2013. Прыжки в воду. Вышка 10 м. Мужчины. Финал [10.07] (2013) IPTVRip

5 | 1

765.77 МБ

В этой теме нет новых непрочитанных сообщений. ХХVII Летняя Универсиада в Казани 2013. Женщины. ½ финала [11.07] (2013) Stream

0 | 1

335.28 МБ

В этой теме нет новых непрочитанных сообщений. ХХVII Летняя Универсиада в Казани 2013. Пляжный волейбол. Женщины [08.07] (2013) Stream

1 | 4

1017.55 МБ

В этой теме нет новых непрочитанных сообщений. ХХVII Летняя Универсиада в Казани 2013. Прыжки в воду. 10 м. Женщины. Финал [08.07] (2013) HDTVRip

0 | 1

1.59 ГБ

В этой теме нет новых непрочитанных сообщений. ХХVII Летняя Универсиада в Казани 2013. Волейбол. Женщины. Группа А. 3-й тур. Россия - США [10.07] (2013) HDTVRip

1 | 2

1.16 ГБ

В этой теме нет новых непрочитанных сообщений. ХХVII Летняя Универсиада в Казани 2013. Баскетбол. Женщины. Финал. США - Россия [15.07] (2013) WEB-DLRip

0 | 1

2.93 ГБ

В этой теме нет новых непрочитанных сообщений. ХХVII Летняя Универсиада в Казани 2013. Волейбол. Женщины. Группа А. Чехия - США [09.07] (2013) IPTVRemux

0 | 2

1.93 ГБ




Вы не можете начинать темы
Вы не можете отвечать на сообщения
Вы не можете редактировать свои сообщения
Вы не можете удалять свои сообщения
Вы не можете добавлять вложения

Перейти:  
Для Мосгорсуда, Роскомнадзора и рекламодателей: mosgorsud-torrent[собачка]yandex.ru
 Вход
ppkBB3cker v.2 © 2008-2014 @ PPK
[ Time : 0.016s | 14 Queries | GZIP : On ]

Торрент трекер RUTOR.IN, Не можете зайти на rutor.org? Какой новый адрес рутор? Какое зеркало рутор? Не работает rutor.org и зеркала? Тогда наш торрент специально для вас. Rutor.in неофициальное зеркало rutor. В случае если у Вас заблокирован rutor или вдруг Вы не можете на него зайти, то Вы без труда сможете скачать бесплатно и без рекламы последние новинки кино, игр, сериалов и прочего у нас, на Rutor.in. Не нужно использовать прокси, чтобы зайти на рутор, достаточно воспользоваться нашим ресурсом. Все новые фильмы, игры, сериалы, книги и музыка за 2013 и 2014 годы через торрент бесплатно. Скачивайте фильмы в хорошем качестве, игры для пк, xbox, playstation без регистрации. У нас вы найдете новые Зарубежные сериалы и Русские сериалы 2013, 2014, 2015 годов. Оставайтесь с нами, качайте любимые фильмы, игры, сериалы, книги и музыку.