img image001 image001 image001 image001 image001 image001 image001 image001 image001 image001 image001 image001 image001 image001 image001

Planets Sun Sun Sun
Статистика раздачи
Автор: Снежана | Размер: 11.14 ГБ | Добавлен: 02 авг 2013
Раздают: 5    Качают: 2
Скачать торрент
Скачать торрент
Описание торрента

СообщениеДобавлено: 02 авг 2013 

ХХVII Летняя Универсиада в Казани 2013 / Церемония закрытия / Россия HD

Дата/Год выпуска: 17/07/2013
Язык комментариев: Руский
Продолжительность: 02:35:49
Описание: Студенты-спортсмены со всего мира съехались в Казань для того, чтобы в очередной раз оспорить призы главного старта двух последних лет – летней Универсиады.

Всемирные студенческие игры пройдут с 6 по 17 июля. В состав сборной России вошли – 640 спортсменов (358 мужчин и 282 девушки) и 299 тренеров и специалистов.

Сборная России на домашней Универсиаде выступит во всех видах спорта. Самое большое представительство наших участников – в легкой атлетике (108), плавании (50), футболе (40), гребле на байдарках и каноэ (36), хоккее на траве (36), академической гребле (35), волейболе (24), баскетболе (24), регби-7 (24) и фехтовании (24). Среди 640 российских спортсменов – 18 олимпийских чемпионов. Это Светлана Ромашина, Александра Пацкевич, Анжелика Тиманина, Дарья Коробова, Алла Шишкина (все – синхронное плавание), Анастасия Близнюк, Ксения Дудкина, Анастасия Назаренко (все – художественная гимнастика), Роман Власов, Ислам-Бека Альбиев, Алан Хугаев (все – греко-римская борьба) , Юлия Зарипова, Иван Ухов (оба – легкая атлетика), Александр Дьяченко, Юрий Постригай (оба – гребля на байдарках и каноэ), Дмитрий Ильиных (волейбол), Арсен Галстян (дзюдо), Илья Захаров (прыжки в воду).

Кроме того, 81 человек значится в списке запасных.

Доп. информация: Релиз -


Рип чистый. Без посторонних надписей. Выкладывается как есть.

Качество: HDTV 1080i
Контейнер: TS
Видео кодек: AVC
Аудио кодек: MP2
Видео: 1920x1080 (16:9) 25.000 fps 9 765 Kbps, 0.188 bit/pixel
Аудио: MPEG Audio 48000Hz stereo 224 Кбит/сек





GeneralID : 1 (0x1)Complete name : D:ВыкладкаТоржественная церемония закрытия XXVII Всемирной летней Универсиады-2013 в Казани (2013, HDTV 1080i) (MYDIMKA).tsFormat : MPEG-TSFile size : 11.1 GiBDuration : 2h 35mnOverall bit rate mode : VariableOverall bit rate : 10.2 Mbps

VideoID : 69 (0x45)Menu ID : 1 (0x1)Format : AVCFormat/Info : Advanced Video CodecFormat profile : High@L4.0Format settings, CABAC : YesFormat settings, ReFrames : 3 framesCodec ID : 27Duration : 2h 35mnBit rate : 9 503 KbpsWidth : 1 920 pixelsHeight : 1 080 pixelsDisplay aspect ratio : 16:9Frame rate : 25.000 fpsStandard : ComponentColor space : YUVChroma subsampling : 4:2:0Bit depth : 8 bitsScan type : InterlacedScan order : Top Field FirstBits/(Pixel*Frame) : 0.183Stream size : 10.3 GiB (93%)Color primaries : BT.709Transfer characteristics : BT.709Matrix coefficients : BT.709

AudioID : 68 (0x44)Menu ID : 1 (0x1)Format : MPEG AudioFormat version : Version 1Format profile : Layer 2Codec ID : 3Duration : 2h 35mnBit rate mode : ConstantBit rate : 224 KbpsChannel(s) : 2 channelsSampling rate : 48.0 KHzCompression mode : LossyStream size : 250 MiB (2%)Language : English



   Похожие торренты   Торрент   Размер 
В этой теме нет новых непрочитанных сообщений. ХХVII Летняя Универсиада в Казани 2013. Церемония закрытия [17.07] (2013) HDTVRip

23 | 1

2.41 ГБ

В этой теме нет новых непрочитанных сообщений. ХХVII Летняя Универсиада в Казани 2013. Церемония закрытия [17.07] (2013) DVB

8 | 2

5.99 ГБ

В этой теме нет новых непрочитанных сообщений. ХХVII Летняя Универсиада в Казани 2013. Церемония открытия (2013) HDTV 1080i от MediaClub

30 | 4

18.67 ГБ

В этой теме нет новых непрочитанных сообщений. ХХVII Летняя Универсиада в Казани 2013. Церемония открытия (2013) HDTVRip

14 | 1

2.54 ГБ

В этой теме нет новых непрочитанных сообщений. ХХVII Летняя Универсиада в Казани 2013. Церемония открытия (2013) HDTVRip

57 | 3

3.9 ГБ

В этой теме нет новых непрочитанных сообщений. ХХVII Летняя Универсиада в Казани 2013. Церемония открытия (2013) HDTVRip 720p

15 | 1

6.49 ГБ

В этой теме нет новых непрочитанных сообщений. ХХVII Летняя Универсиада в Казани 2013. Художественная гимнастика [15.07] (2013) HDTV 1080i

1 | 1

25.99 ГБ




Вы не можете начинать темы
Вы не можете отвечать на сообщения
Вы не можете редактировать свои сообщения
Вы не можете удалять свои сообщения
Вы не можете добавлять вложения

Перейти:  
Для Мосгорсуда, Роскомнадзора и рекламодателей: mosgorsud-torrent[собачка]yandex.ru
 Вход
ppkBB3cker v.2 © 2008-2014 @ PPK
[ Time : 0.036s | 15 Queries | GZIP : Off ]

Торрент трекер RUTOR.IN, Не можете зайти на rutor.org? Какой новый адрес рутор? Какое зеркало рутор? Не работает rutor.org и зеркала? Тогда наш торрент специально для вас. Rutor.in неофициальное зеркало rutor. В случае если у Вас заблокирован rutor или вдруг Вы не можете на него зайти, то Вы без труда сможете скачать бесплатно и без рекламы последние новинки кино, игр, сериалов и прочего у нас, на Rutor.in. Не нужно использовать прокси, чтобы зайти на рутор, достаточно воспользоваться нашим ресурсом. Все новые фильмы, игры, сериалы, книги и музыка за 2013 и 2014 годы через торрент бесплатно. Скачивайте фильмы в хорошем качестве, игры для пк, xbox, playstation без регистрации. У нас вы найдете новые Зарубежные сериалы и Русские сериалы 2013, 2014, 2015 годов. Оставайтесь с нами, качайте любимые фильмы, игры, сериалы, книги и музыку.
cron