img image001 image001 image001 image001 image001 image001 image001 image001 image001 image001 image001 image001 image001 image001 image001

Planets Sun Sun Sun
Статистика раздачи
Автор: Снежана | Размер: 2.41 ГБ | Добавлен: 02 авг 2013
Раздают: 23    Качают: 1
Скачать торрент
Скачать торрент
Описание торрента

СообщениеДобавлено: 02 авг 2013 

ХХVII Летняя Универсиада в Казани 2013 / Церемония закрытия / Россия HD

Дата/Год выпуска: 17/07/2013
Язык комментариев: Руский
Продолжительность: 02:35:49
Описание: Студенты-спортсмены со всего мира съехались в Казань для того, чтобы в очередной раз оспорить призы главного старта двух последних лет – летней Универсиады.

Всемирные студенческие игры пройдут с 6 по 17 июля. В состав сборной России вошли – 640 спортсменов (358 мужчин и 282 девушки) и 299 тренеров и специалистов.

Сборная России на домашней Универсиаде выступит во всех видах спорта. Самое большое представительство наших участников – в легкой атлетике (108), плавании (50), футболе (40), гребле на байдарках и каноэ (36), хоккее на траве (36), академической гребле (35), волейболе (24), баскетболе (24), регби-7 (24) и фехтовании (24). Среди 640 российских спортсменов – 18 олимпийских чемпионов. Это Светлана Ромашина, Александра Пацкевич, Анжелика Тиманина, Дарья Коробова, Алла Шишкина (все – синхронное плавание), Анастасия Близнюк, Ксения Дудкина, Анастасия Назаренко (все – художественная гимнастика), Роман Власов, Ислам-Бека Альбиев, Алан Хугаев (все – греко-римская борьба) , Юлия Зарипова, Иван Ухов (оба – легкая атлетика), Александр Дьяченко, Юрий Постригай (оба – гребля на байдарках и каноэ), Дмитрий Ильиных (волейбол), Арсен Галстян (дзюдо), Илья Захаров (прыжки в воду).

Кроме того, 81 человек значится в списке запасных.

Доп. информация: Релиз -


Рип чистый. Без посторонних надписей. Выкладывается как есть.

Качество: HDTVRip
Контейнер: AVI
Видео кодек: XVID
Аудио кодек: MP3
Видео: 720x400 (16:9) 23.976 fps 2 012 Kbps, 0.291 bit/pixel
Аудио: MPEG Audio 48000Hz stereo 192 Кбит/сек





GeneralComplete name : D:ВыкладкаТоржественная церемония закрытия XXVII Всемирной летней Универсиады-2013 в Казани (2013, HDTVRip) (MYDIMKA).aviFormat : AVIFormat/Info : Audio Video InterleaveFormat profile : OpenDMLFile size : 2.41 GiBDuration : 2h 35mnOverall bit rate : 2 213 KbpsWriting application : VirtualDubMod 1.5.10.3 | www.virtualdub-fr.org || (build 2550/release)Writing library : VirtualDubMod build 2550/release

VideoID : 0Format : MPEG-4 VisualFormat profile : Advanced Simple@L5Format settings, BVOP : 2Format settings, QPel : NoFormat settings, GMC : No warppointsFormat settings, Matrix : Default (H.263)Muxing mode : Packed bitstreamCodec ID : XVIDCodec ID/Hint : XviDDuration : 2h 35mnBit rate : 2 010 KbpsWidth : 720 pixelsHeight : 400 pixelsDisplay aspect ratio : 16:9Frame rate : 23.976 fpsColor space : YUVChroma subsampling : 4:2:0Bit depth : 8 bitsScan type : ProgressiveCompression mode : LossyBits/(Pixel*Frame) : 0.291Stream size : 2.19 GiB (91%)Writing library : XviD 1.2.1 (UTC 2008-12-04)

AudioID : 1Format : MPEG AudioFormat version : Version 1Format profile : Layer 3Codec ID : 55Codec ID/Hint : MP3Duration : 2h 35mnBit rate mode : ConstantBit rate : 192 KbpsChannel(s) : 2 channelsSampling rate : 48.0 KHzCompression mode : LossyStream size : 214 MiB (9%)Alignment : Aligned on interleavesInterleave, duration : 42 ms (1.00 video frame)Interleave, preload duration : 504 msWriting library : LAME3.99rEncoding settings : -m s -V 4 -q 2 -lowpass 18.6 -b 192



   Похожие торренты   Торрент   Размер 
В этой теме нет новых непрочитанных сообщений. ХХVII Летняя Универсиада в Казани 2013. Церемония закрытия [17.07] (2013) DVB

8 | 2

5.99 ГБ

В этой теме нет новых непрочитанных сообщений. ХХVII Летняя Универсиада в Казани 2013. Церемония закрытия [17.07] (2013) HDTV 1080i

5 | 2

11.14 ГБ

В этой теме нет новых непрочитанных сообщений. ХХVII Летняя Универсиада в Казани 2013. Церемония открытия (2013) HDTVRip

14 | 1

2.54 ГБ

В этой теме нет новых непрочитанных сообщений. ХХVII Летняя Универсиада в Казани 2013. Церемония открытия (2013) HDTVRip

57 | 3

3.9 ГБ

В этой теме нет новых непрочитанных сообщений. ХХVII Летняя Универсиада в Казани 2013. Церемония открытия (2013) HDTVRip 720p

15 | 1

6.49 ГБ

В этой теме нет новых непрочитанных сообщений. ХХVII Летняя Универсиада в Казани 2013. Церемония открытия (2013) HDTV 1080i от MediaClub

30 | 4

18.67 ГБ

В этой теме нет новых непрочитанных сообщений. ХХVII Летняя Универсиада в Казани 2013. Баскетбол. Женщины. 1/4. Россия - Чехия [12.07] (2013) HDTVRip

0 | 2

1.31 ГБ




Вы не можете начинать темы
Вы не можете отвечать на сообщения
Вы не можете редактировать свои сообщения
Вы не можете удалять свои сообщения
Вы не можете добавлять вложения

Перейти:  
Для Мосгорсуда, Роскомнадзора и рекламодателей: mosgorsud-torrent[собачка]yandex.ru
 Вход
ppkBB3cker v.2 © 2008-2014 @ PPK
[ Time : 0.049s | 16 Queries | GZIP : Off ]

cron