img image001 image001 image001 image001 image001 image001 image001 image001 image001 image001 image001 image001 image001 image001 image001

Planets Sun Sun Sun
Статистика раздачи
Автор: Снежана | Размер: 5.71 ГБ | Добавлен: 03 авг 2013
Раздают: 3    Качают: 2
Скачать торрент
Скачать торрент
Описание торрента

СообщениеДобавлено: 03 авг 2013 

World Superbike (WSBK) 2013 / Этап 08 / Moscow Raceway (Россия) / Гонка 1 / Eurosport 2 HD

Вид спорта: Мотогонки
Дата/Год выпуска: 21/07/13
Язык комментариев: русский

Автор записи: SashaR.

Качество: DVB-S2 Remux
Формат видео: TS
Видео: AVC, 1920x1080, 16:9, 10.2 Mbps, 25 fps
Аудио: MP2, 192 Kbps, 48.0 kHz, 2 channels
E:World Superbike (WSBK) 2013. Moscow Raceway (Ðîññèÿ)World Superbike (WSBK) 2013. Moscow Raceway (Ðîññèÿ).Race 1.ts
General #6
ID : 6 (0x6)
Complete name : E:World Superbike (WSBK) 2013. Moscow Raceway (Ðîññèÿ)World Superbike (WSBK) 2013. Moscow Raceway (Ðîññèÿ).Race 1.ts
Format : MPEG-TS
File size : 4.54 GiB
Duration : 59mn 39s
Overall bit rate : 10.9 Mbps
Video #538
ID : 538 (0x21A)
Menu ID : 1 (0x1)
Format : AVC
Format/Info : Advanced Video Codec
Format profile : High@L4.0
Format settings, CABAC : Yes
Format settings, ReFrames : 4 frames
Codec ID : 27
Duration : 59mn 39s
Bit rate : 10.2 Mbps
Width : 1 920 pixels
Height : 1 080 pixels
Display aspect ratio : 16:9
Frame rate : 25.000 fps
Color space : YUV
Chroma subsampling : 4:2:0
Bit depth : 8 bits
Scan type : MBAFF
Scan order : Top Field First
Bits/(Pixel*Frame) : 0.196
Stream size : 4.23 GiB (93%)
Language : English
Color primaries : BT.709-5, BT.1361, IEC 61966-2-4, SMPTE RP177
Transfer characteristics : BT.709-5, BT.1361
Matrix coefficients : BT.709-5, BT.1361, IEC 61966-2-4 709, SMPTE RP177
Audio #5386
ID : 5386 (0x150A)
Menu ID : 1 (0x1)
Format : MPEG Audio
Format version : Version 1
Format profile : Layer 2
Codec ID : 4
Duration : 59mn 39s
Bit rate mode : Constant
Bit rate : 192 Kbps
Channel(s) : 2 channels
Sampling rate : 48.0 KHz
Compression mode : Lossy
Delay relative to video : 73ms
Stream size : 81.9 MiB (2%)
Language : German

Race 1 - 00:59:39




   Похожие торренты   Торрент   Размер 
В этой теме нет новых непрочитанных сообщений. Мотоспорт. Супербайк / World Superbike (WSBK) 2012. Этап 11, Moscow Raceway (Россия). Гонка (2012) HDTVRip 720р

0 | 1

3.97 ГБ

В этой теме нет новых непрочитанных сообщений. Мотоспорт. World Superbike (WSBK), 2013, Этап 10, Гонка 1-2, Суперспорт, Magny Cours (2013) HDTV 1080i, 720p

0 | 1

13.43 ГБ

В этой теме нет новых непрочитанных сообщений. Мотоспорт. World Superbike (WSBK), 2013, Этап 11, Гонка 1-2, Суперспорт, Суперпоул, Istanbul Park (2013) HDTV 1080i, 720p

0 | 1

20.74 ГБ

В этой теме нет новых непрочитанных сообщений. Мотоспорт. World Superbike (WSBK). 2013. 1/15. Phillip Island. Гонка [Eurosport HD, Feed] (2013) HDTVRip-AVC 720p

0 | 2

10.25 ГБ

В этой теме нет новых непрочитанных сообщений. Мотоспорт. World Superbike (WSBK). SuperSport, SuperStock 600 - 2013. Этап 09. Silverstone (UK) (2013) DVB-S2 Remux

0 | 1

22.87 ГБ

В этой теме нет новых непрочитанных сообщений. Мотоспорт. Супербайк / World Superbike (WSBK) 2012. Этап 12, Nurburgring (Германия). Гонка 1,2 (2012) HDTVRip 720р

0 | 2

3.63 ГБ

В этой теме нет новых непрочитанных сообщений. Мотоспорт. World Superbike (WSBK). SuperSport, SuperStock 600 - 2013. Этап 09. Silverstone (UK) (2013) SATRip

3 | 1

8.37 ГБ




Вы не можете начинать темы
Вы не можете отвечать на сообщения
Вы не можете редактировать свои сообщения
Вы не можете удалять свои сообщения
Вы не можете добавлять вложения

Перейти:  
Для Мосгорсуда, Роскомнадзора и рекламодателей: mosgorsud-torrent[собачка]yandex.ru
 Вход
ppkBB3cker v.2 © 2008-2014 @ PPK
[ Time : 0.034s | 14 Queries | GZIP : Off ]

Торрент трекер RUTOR.IN, Не можете зайти на rutor.org? Какой новый адрес рутор? Какое зеркало рутор? Не работает rutor.org и зеркала? Тогда наш торрент специально для вас. Rutor.in неофициальное зеркало rutor. В случае если у Вас заблокирован rutor или вдруг Вы не можете на него зайти, то Вы без труда сможете скачать бесплатно и без рекламы последние новинки кино, игр, сериалов и прочего у нас, на Rutor.in. Не нужно использовать прокси, чтобы зайти на рутор, достаточно воспользоваться нашим ресурсом. Все новые фильмы, игры, сериалы, книги и музыка за 2013 и 2014 годы через торрент бесплатно. Скачивайте фильмы в хорошем качестве, игры для пк, xbox, playstation без регистрации. У нас вы найдете новые Зарубежные сериалы и Русские сериалы 2013, 2014, 2015 годов. Оставайтесь с нами, качайте любимые фильмы, игры, сериалы, книги и музыку.