img image001 image001 image001 image001 image001 image001 image001 image001 image001 image001 image001 image001 image001 image001 image001

Planets Sun Sun Sun
Статистика раздачи
Автор: Снежана | Размер: 4.34 ГБ | Добавлен: 03 авг 2013
Раздают: 12    Качают: 6
Скачать торрент
Скачать торрент
Описание торрента

СообщениеДобавлено: 03 авг 2013 

Открытый Кубок Ярославской области по
бодибилдингу, фитнесу и бодифитнесу


Вид спорта: Бодибилдинг
Дата/Год выпуска: 6.04.2013
Язык комментариев: русский

Описание:
Юниоры бодибилдинг абсолютная категория
Мужчины классический бодибилдинг: абсолютная категория
Мужчины бодибилдинг мастера, абсолютная категория
Мужчины бодибилдинг категория до 80 кг
Женщины бикини абсолютная категория
Мужчины бодибилдинг категория до 90 кг
Женщины бодифитнес абсолютная категория
Мужчины бодибилдинг категория свыше 90 кг
Женщины бодифитнес абсолютная категория
Мужчины бодибилдинг абсолютная категория

Автор рипа/записи: micky321
Качество: HDRip
Формат видео: AVI

1 часть: 2:26:07 2.16 Гб
Видео: XviD 720х400 16:9 1889 25,00 0.262
Аудио: Rus CBR MPEG1 48,0 224 2

2 часть: 2:08:49 2.17 Гб
Видео: XviD 720х400 16:9 2176 25,00 0.302
Аудио: Rus CBR MPEG1 48,0 224 2
2:26:07 + 2:08:49





ч1:
Формат : AVI
Формат/Информация : Audio Video Interleave
Профиль формата : OpenDML
Размер файла : 2,17 Гбайт
Продолжительность : 2 ч. 26 м.
Общий поток : 2126 Кбит/сек
Программа кодирования : VirtualDubMod 1.5.10.2 (build 2540/release)
Библиотека кодирования : VirtualDubMod build 2540/release

Видео
Идентификатор : 0
Формат : MPEG-4 Visual
Профиль формата : Advanced Simple@L5
Параметр BVOP формата : 2
Параметр QPel формата : Нет
Параметр GMC формата : Без точки перехода
Параметр матрицы формата : Default (H.263)
Режим смешивания : Сжатый битовый поток
Идентификатор кодека : XVID
Идентификатор кодека/Подсказка : XviD
Продолжительность : 2 ч. 26 м.
Битрейт : 1889 Кбит/сек
Ширина : 720 пикселей
Высота : 400 пикселей
Соотношение сторон : 16:9
Частота кадров : 25,000 кадров/сек
Цветовое пространство : YUV
Субдискретизация насыщенности : 4:2:0
Битовая глубина : 8 бит
Тип развёртки : Прогрессивная
Метод сжатия : С потерями
Бит/(Пиксели*Кадры) : 0.262
Размер потока : 1,93 Гбайт (89%)
Библиотека кодирования : XviD 1.2.1 (UTC 2008-12-04)

Аудио
Идентификатор : 1
Формат : MPEG Audio
Версия формата : Version 1
Профиль формата : Layer 2
Идентификатор кодека : 50
Продолжительность : 2 ч. 26 м.
Вид битрейта : Постоянный
Битрейт : 224 Кбит/сек
Каналы : 2 канала
Частота : 48,0 КГц
Метод сжатия : С потерями
Размер потока : 234 Мбайт (11%)
Выравнивание : Соединение по промежуткам
Продолжительность промежутка : 40 мс. (1,00 видеокадр)
Время предзагрузки промежутка : 504 мс.

ч2:
Формат : AVI
Формат/Информация : Audio Video Interleave
Профиль формата : OpenDML
Размер файла : 2,17 Гбайт
Продолжительность : 2 ч. 8 м.
Общий поток : 2413 Кбит/сек
Программа кодирования : VirtualDubMod 1.5.10.2 (build 2540/release)
Библиотека кодирования : VirtualDubMod build 2540/release

Видео
Идентификатор : 0
Формат : MPEG-4 Visual
Профиль формата : Advanced Simple@L5
Параметр BVOP формата : 2
Параметр QPel формата : Нет
Параметр GMC формата : Без точки перехода
Параметр матрицы формата : Default (H.263)
Режим смешивания : Сжатый битовый поток
Идентификатор кодека : XVID
Идентификатор кодека/Подсказка : XviD
Продолжительность : 2 ч. 8 м.
Битрейт : 2176 Кбит/сек
Ширина : 720 пикселей
Высота : 400 пикселей
Соотношение сторон : 16:9
Частота кадров : 25,000 кадров/сек
Цветовое пространство : YUV
Субдискретизация насыщенности : 4:2:0
Битовая глубина : 8 бит
Тип развёртки : Прогрессивная
Метод сжатия : С потерями
Бит/(Пиксели*Кадры) : 0.302
Размер потока : 1,96 Гбайт (90%)
Библиотека кодирования : XviD 1.2.1 (UTC 2008-12-04)

Аудио
Идентификатор : 1
Формат : MPEG Audio
Версия формата : Version 1
Профиль формата : Layer 2
Идентификатор кодека : 50
Продолжительность : 2 ч. 8 м.
Вид битрейта : Постоянный
Битрейт : 224 Кбит/сек
Каналы : 2 канала
Частота : 48,0 КГц
Метод сжатия : С потерями
Размер потока : 206 Мбайт (9%)
Выравнивание : Соединение по промежуткам
Продолжительность промежутка : 40 мс. (1,00 видеокадр)
Время предзагрузки промежутка : 504 мс.



   Похожие торренты   Торрент   Размер 
В этой теме нет новых непрочитанных сообщений. Бодибилдинг. Открытый кубок Ярославской области по бодибилдингу, фитнесу и бодифитнесу [29.03] (2014) HDRip

23 | 28

4.32 ГБ

В этой теме нет новых непрочитанных сообщений. Бодибилдинг. Железный мир - 56 номеров. Бодибилдинг, пауэрлифтинг, армрестлинг, стронгмен (2003-2013) PDF

324 | 18

3.14 ГБ

В этой теме нет новых непрочитанных сообщений. Биатлон. Открытый Кубок России 2013. Тюмень. Мужчины. Гонка преследования 12,5 км (2013) SATRip

0 | 1

917.18 МБ

В этой теме нет новых непрочитанных сообщений. Биатлон. Открытый Кубок России 2013. Тюмень. Женщины. Гонка преследования 10 км (2013) SATRip

0 | 2

789.3 МБ

В этой теме нет новых непрочитанных сообщений. Биатлон. Открытый Кубок России 2013. Тюмень. Мега Масс-старт. Женщины 13,5 км (2013) SATRip

0 | 2

1.09 ГБ

В этой теме нет новых непрочитанных сообщений. Биатлон. Открытый Кубок России 2013. Тюмень. Мега Масс-старт. Мужчины 18 км (2013) IPTVRip

1 | 1

781.12 МБ

В этой теме нет новых непрочитанных сообщений. Фролов Ю.А. - Бодибилдинг и варёное питание (2013) HDRip

93 | 16

290.21 МБ




Вы не можете начинать темы
Вы не можете отвечать на сообщения
Вы не можете редактировать свои сообщения
Вы не можете удалять свои сообщения
Вы не можете добавлять вложения

Перейти:  
Для Мосгорсуда, Роскомнадзора и рекламодателей: mosgorsud-torrent[собачка]yandex.ru
 Вход
ppkBB3cker v.2 © 2008-2014 @ PPK
[ Time : 0.041s | 15 Queries | GZIP : Off ]

cron