img image001 image001 image001 image001 image001 image001 image001 image001 image001 image001 image001 image001 image001 image001 image001

Planets Sun Sun Sun
Статистика раздачи
Автор: Снежана | Размер: 22.29 ГБ | Добавлен: 03 авг 2013
Раздают: 0    Качают: 3
Скачать торрент
Скачать торрент
Описание торрента

СообщениеДобавлено: 03 авг 2013 

GP2, GP3-2013 Hungaroring (Hungary)



Вид спорта: Автогонки
Дата/Год выпуска: 27.07.13
Язык комментариев: русский (Наталья Фабричнова, Алексей Попов)
Содержание: GP2/GP3

Автор записи: SashaR.

Качество: DVB-S2 Remux
Формат видео: TS
Видео: AVC, 1920x1080, 16:9, 11.5 Mbps, 25 fps
Аудио: MP2, 192 Kbps, 48.0 kHz, 2 channels
#77
E:GP2, GP3-2013 Hungaroring (Hungary)GP2 Ïðàêòèêà.ts
General #6
ID : 6 (0x6)
Complete name : E:GP2, GP3-2013 Hungaroring (Hungary)GP2 Ïðàêòèêà.ts
Format : MPEG-TS
File size : 3.26 GiB
Duration : 37mn 56s
Overall bit rate : 12.3 Mbps
Video #303
ID : 303 (0x12F)
Menu ID : 20103 (0x4E87)
Format : AVC
Format/Info : Advanced Video Codec
Format profile : High@L4.0
Format settings, CABAC : Yes
Format settings, ReFrames : 3 frames
Codec ID : 27
Duration : 37mn 55s
Bit rate : 11.5 Mbps
Width : 1 920 pixels
Height : 1 080 pixels
Display aspect ratio : 16:9
Frame rate : 25.000 fps
Standard : Component
Color space : YUV
Chroma subsampling : 4:2:0
Bit depth : 8 bits
Scan type : Interlaced
Scan order : Top Field First
Bits/(Pixel*Frame) : 0.222
Stream size : 3.05 GiB (93%)
Color primaries : BT.709-5, BT.1361, IEC 61966-2-4, SMPTE RP177
Transfer characteristics : BT.709-5, BT.1361
Matrix coefficients : BT.709-5, BT.1361, IEC 61966-2-4 709, SMPTE RP177
Audio #403
ID : 403 (0x193)
Menu ID : 20103 (0x4E87)
Format : MPEG Audio
Format version : Version 1
Format profile : Layer 2
Codec ID : 4
Duration : 37mn 55s
Bit rate mode : Constant
Bit rate : 192 Kbps
Channel(s) : 2 channels
Sampling rate : 48.0 KHz
Compression mode : Lossy
Delay relative to video : 1ms
Stream size : 52.1 MiB (2%)
Language : Russian

GP2 Квалификация - 00:37:56




   Похожие торренты   Торрент   Размер 
В этой теме нет новых непрочитанных сообщений. Автоспорт. WTCC 2013. Этап 07. Circuito da Boavista (Porto) [30.06] (2013) DVB-S2 Remux 1080i

0 | 2

7.67 ГБ

В этой теме нет новых непрочитанных сообщений. Автоспорт. WTCC. Этап 1. Монца. Квалификация [23.02] (2013) DVB-S2 Remux

0 | 2

4.92 ГБ

В этой теме нет новых непрочитанных сообщений. Автоспорт. World Touring Car Championship (WTCC). Round 4. Hungaroring (2013) HDTV 1080i

2 | 2

5.54 ГБ

В этой теме нет новых непрочитанных сообщений. Автоспорт. World Touring Car Championship (WTCC). Этап 8. Аргентина. Разминка, Гонка 1, Гонка 2 (2013) DVB-S2 Remux

1 | 2

8.15 ГБ

В этой теме нет новых непрочитанных сообщений. Автоспорт. GP2 2013. Этап 04 из 11. Гран-при Монако. Квалификация, Гонка 1, Гонка 2 [Спорт 1] (2013) DVB-S2 Remux

0 | 1

17.11 ГБ

В этой теме нет новых непрочитанных сообщений. Автоспорт. GP2 2013. Этап 03 из 11. Гран-при Испания. Квалификация, Гонка 1, Гонка 2 [Спорт 1] (2013) DVB-S2 Remux

0 | 1

15 ГБ

В этой теме нет новых непрочитанных сообщений. Автоспорт. World Touring Car Championship (WTCC) 2013. Этап 07. Porto (2013) IPTV 1080i

0 | 1

6.78 ГБ




Вы не можете начинать темы
Вы не можете отвечать на сообщения
Вы не можете редактировать свои сообщения
Вы не можете удалять свои сообщения
Вы не можете добавлять вложения

Перейти:  
Для Мосгорсуда, Роскомнадзора и рекламодателей: mosgorsud-torrent[собачка]yandex.ru
 Вход
ppkBB3cker v.2 © 2008-2014 @ PPK
[ Time : 0.021s | 14 Queries | GZIP : Off ]

Торрент трекер RUTOR.IN, Не можете зайти на rutor.org? Какой новый адрес рутор? Какое зеркало рутор? Не работает rutor.org и зеркала? Тогда наш торрент специально для вас. Rutor.in неофициальное зеркало rutor. В случае если у Вас заблокирован rutor или вдруг Вы не можете на него зайти, то Вы без труда сможете скачать бесплатно и без рекламы последние новинки кино, игр, сериалов и прочего у нас, на Rutor.in. Не нужно использовать прокси, чтобы зайти на рутор, достаточно воспользоваться нашим ресурсом. Все новые фильмы, игры, сериалы, книги и музыка за 2013 и 2014 годы через торрент бесплатно. Скачивайте фильмы в хорошем качестве, игры для пк, xbox, playstation без регистрации. У нас вы найдете новые Зарубежные сериалы и Русские сериалы 2013, 2014, 2015 годов. Оставайтесь с нами, качайте любимые фильмы, игры, сериалы, книги и музыку.