img image001 image001 image001 image001 image001 image001 image001 image001 image001 image001 image001 image001 image001 image001 image001

Planets Sun Sun Sun
Статистика раздачи
Автор: Снежана | Размер: 8.15 ГБ | Добавлен: 11 авг 2013
Раздают: 1    Качают: 2
Скачать торрент
Скачать торрент
Описание торрента

СообщениеДобавлено: 11 авг 2013 

World Touring Car Championship (WTCC) / Этап 8 / Аргентина / Разминка, Гонка 1, Гонка 2

Вид спорта: WTCC
Дата/Год выпуска: 04.08.13
Язык комментариев: русский (Оксана Косаченко, Александр Кабановский)

Автор записи: SashaR.

Качество: DVB-S2 Remux
Формат видео: TS
Видео: AVC, 1920x1080, 16:9, 10.2 Mbps, 25 fps
Аудио: MP2, 192 Kbps, 48.0 kHz, 2 channels
C:World Touring Car Championship (WTCC) . Ýòàï 8 . Termas de Rio Hondo (Àðãåíòèíà)Race 1.ts
General #6
ID : 6 (0x6)
Complete name : C:World Touring Car Championship (WTCC) . Ýòàï 8 . Termas de Rio Hondo (Àðãåíòèíà)Race 1.ts
Format : MPEG-TS
File size : 3.91 GiB
Duration : 51mn 17s
Overall bit rate : 10.9 Mbps
Video #538
ID : 538 (0x21A)
Menu ID : 1 (0x1)
Format : AVC
Format/Info : Advanced Video Codec
Format profile : High@L4.0
Format settings, CABAC : Yes
Format settings, ReFrames : 4 frames
Codec ID : 27
Duration : 51mn 17s
Bit rate : 10.2 Mbps
Width : 1 920 pixels
Height : 1 080 pixels
Display aspect ratio : 16:9
Frame rate : 25.000 fps
Color space : YUV
Chroma subsampling : 4:2:0
Bit depth : 8 bits
Scan type : MBAFF
Scan order : Top Field First
Bits/(Pixel*Frame) : 0.196
Stream size : 3.65 GiB (93%)
Language : English
Color primaries : BT.709-5, BT.1361, IEC 61966-2-4, SMPTE RP177
Transfer characteristics : BT.709-5, BT.1361
Matrix coefficients : BT.709-5, BT.1361, IEC 61966-2-4 709, SMPTE RP177
Audio #5386
ID : 5386 (0x150A)
Menu ID : 1 (0x1)
Format : MPEG Audio
Format version : Version 1
Format profile : Layer 2
Codec ID : 4
Duration : 51mn 16s
Bit rate mode : Constant
Bit rate : 192 Kbps
Channel(s) : 2 channels
Sampling rate : 48.0 KHz
Compression mode : Lossy
Delay relative to video : 248ms
Stream size : 70.4 MiB (2%)
Language : German

Разминка - 00:14:48
Гонка 1 - 00:51:17
Гонка 2 - 00:48:05




   Похожие торренты   Торрент   Размер 
В этой теме нет новых непрочитанных сообщений. Автоспорт. World Touring Car Championship (WTCC). Этап 9. Sonoma. Квалификация, Разминка, Гонка 1-2 (2013) IPTV

0 | 2

5.47 ГБ

В этой теме нет новых непрочитанных сообщений. Автоспорт. World Touring Car Championship (WTCC) 2017. Этап 4. Германия. Квалификация, Гонка 1-2 (2017) HDTVRip 720p | 50fps

0 | 0

5.48 ГБ

В этой теме нет новых непрочитанных сообщений. Автоспорт. World Touring Car Championship (WTCC) 2014. Этап 05. Salzburg. Гонки 1 и 2 (2014) DVB-S2 Remux

0 | 2

5.86 ГБ

В этой теме нет новых непрочитанных сообщений. Автоспорт. World Touring Car Championship (WTCC) 2014. Этап 06. Moscow. Квал. Гонки 1 и 2 (2014) DVB-S2 Remux

2 | 4

12.19 ГБ

В этой теме нет новых непрочитанных сообщений. Автоспорт. World Touring Car Championship (WTCC). Этап 06. Moscow Raceway (2013) IPTV 1080i

0 | 2

5.96 ГБ

В этой теме нет новых непрочитанных сообщений. Автоспорт. World Touring Car Championship (WTCC) 2013. Этап 07. Porto (2013) IPTV 1080i

0 | 1

6.78 ГБ

В этой теме нет новых непрочитанных сообщений. Автоспорт. World Touring Car Championship (WTCC). Этапы 01-08 (2013) IPTVRip

0 | 3

14.71 ГБ




Вы не можете начинать темы
Вы не можете отвечать на сообщения
Вы не можете редактировать свои сообщения
Вы не можете удалять свои сообщения
Вы не можете добавлять вложения

Перейти:  
Для Мосгорсуда, Роскомнадзора и рекламодателей: mosgorsud-torrent[собачка]yandex.ru
 Вход
ppkBB3cker v.2 © 2008-2014 @ PPK
[ Time : 0.053s | 15 Queries | GZIP : Off ]

Торрент трекер RUTOR.IN, Не можете зайти на rutor.org? Какой новый адрес рутор? Какое зеркало рутор? Не работает rutor.org и зеркала? Тогда наш торрент специально для вас. Rutor.in неофициальное зеркало rutor. В случае если у Вас заблокирован rutor или вдруг Вы не можете на него зайти, то Вы без труда сможете скачать бесплатно и без рекламы последние новинки кино, игр, сериалов и прочего у нас, на Rutor.in. Не нужно использовать прокси, чтобы зайти на рутор, достаточно воспользоваться нашим ресурсом. Все новые фильмы, игры, сериалы, книги и музыка за 2013 и 2014 годы через торрент бесплатно. Скачивайте фильмы в хорошем качестве, игры для пк, xbox, playstation без регистрации. У нас вы найдете новые Зарубежные сериалы и Русские сериалы 2013, 2014, 2015 годов. Оставайтесь с нами, качайте любимые фильмы, игры, сериалы, книги и музыку.
cron