img image001 image001 image001 image001 image001 image001 image001 image001 image001 image001 image001 image001 image001 image001 image001

Planets Sun Sun Sun
Статистика раздачи
Автор: Снежана | Размер: 4.44 ГБ | Добавлен: 11 авг 2013
Раздают: 0    Качают: 3
Скачать торрент
Скачать торрент
Описание торрента

СообщениеДобавлено: 11 авг 2013 

IndyCar Series. Сезон 2013. Этап 14. Гран-при Mid-Ohio. Гонка. Viasat Sport SD

Год выпуска: 2013
Вид спорта: IndyCar Series
Комментарий: Профессиональный
Язык комментариев: Русский (С. Беднарук)
Доп. информация: IPTVRemux

Видео: MPEG2, 720x576i (16:9) 25 FPS, 3 485 Kbps
Аудио: MPEG Layer-II Stereo 192 kbps 48.0 kHz
02:49:17

IndyCar.Series.2013.Round14.Mid-Ohio.Race.ViasatSport_BL.mpg
Format : MPEG-PS
File size : 4.44 GiB
Duration : 2h 49mn
Overall bit rate mode : Variable
Overall bit rate : 3 751 Kbps

Video
ID : 224 (0xE0)
Format : MPEG Video
Format version : Version 2
Format profile : Main@Main
Format settings, BVOP : Yes
Format settings, Matrix : Custom
Format settings, GOP : Variable
Duration : 2h 49mn
Bit rate mode : Variable
Bit rate : 3 485 Kbps
Maximum bit rate : 15.0 Mbps
Width : 720 pixels
Height : 576 pixels
Display aspect ratio : 16:9
Active Format Deion : Letterbox 16:9 image
Frame rate : 25.000 fps
Standard : PAL
Color space : YUV
Chroma subsampling : 4:2:0
Bit depth : 8 bits
Scan type : Interlaced
Scan order : Top Field First
Compression mode : Lossy
Bits/(Pixel*Frame) : 0.336
Time code of first frame : 00:00:00:00
Time code source : Group of pictures header
Stream size : 4.12 GiB (93%)

Audio
ID : 192 (0xC0)
Format : MPEG Audio
Format version : Version 1
Format profile : Layer 2
Duration : 2h 49mn
Bit rate mode : Constant
Bit rate : 192 Kbps
Channel(s) : 2 channels
Sampling rate : 48.0 KHz
Compression mode : Lossy
Delay relative to video : 21ms
Stream size : 232 MiB (5%)




   Похожие торренты   Торрент   Размер 
В этой теме нет новых непрочитанных сообщений. Автоспорт. IZOD IndyCar Series 2013. Этап 15. Sonoma. Гонка (2013) HDTVRip

0 | 2

5.18 ГБ

В этой теме нет новых непрочитанных сообщений. Автоспорт. IZOD IndyCar Series 2013. Этап 12 - 13. Toronto. Гонка (2013) HDTVRip 720р

0 | 2

9.69 ГБ

В этой теме нет новых непрочитанных сообщений. Автоспорт. IZOD IndyCar Series 2013. Этап 18. Grand Prix Of Houston. Гонка 2 (2013) IPTVRip

0 | 2

3.95 ГБ

В этой теме нет новых непрочитанных сообщений. Автоспорт. IZOD IndyCar Series 2013. Этап 17. Grand Prix Of Houston. Гонка (2013) IPTVRip

0 | 1

3.61 ГБ

В этой теме нет новых непрочитанных сообщений. Автоспорт. IZOD IndyCar Series 2013. Этап 9. Iowa Corn Indy 250. Гонка (2013) HDTVRip 720р

0 | 1

5.36 ГБ

В этой теме нет новых непрочитанных сообщений. Формула 1. Сезон 2013. Этап 10. Гран При Венгрии. Гонка (2013) IPTVRemux

29 | 5

3.59 ГБ

В этой теме нет новых непрочитанных сообщений. Автоспорт. IZOD IndyCar Series 2013. Этапы 07 - Firestone 550. Гонка (2013) HDTVRip 720р

2 | 2

2.09 ГБ




Вы не можете начинать темы
Вы не можете отвечать на сообщения
Вы не можете редактировать свои сообщения
Вы не можете удалять свои сообщения
Вы не можете добавлять вложения

Перейти:  
Для Мосгорсуда, Роскомнадзора и рекламодателей: mosgorsud-torrent[собачка]yandex.ru
 Вход
ppkBB3cker v.2 © 2008-2014 @ PPK
[ Time : 0.022s | 14 Queries | GZIP : On ]

Торрент трекер RUTOR.IN, Не можете зайти на rutor.org? Какой новый адрес рутор? Какое зеркало рутор? Не работает rutor.org и зеркала? Тогда наш торрент специально для вас. Rutor.in неофициальное зеркало rutor. В случае если у Вас заблокирован rutor или вдруг Вы не можете на него зайти, то Вы без труда сможете скачать бесплатно и без рекламы последние новинки кино, игр, сериалов и прочего у нас, на Rutor.in. Не нужно использовать прокси, чтобы зайти на рутор, достаточно воспользоваться нашим ресурсом. Все новые фильмы, игры, сериалы, книги и музыка за 2013 и 2014 годы через торрент бесплатно. Скачивайте фильмы в хорошем качестве, игры для пк, xbox, playstation без регистрации. У нас вы найдете новые Зарубежные сериалы и Русские сериалы 2013, 2014, 2015 годов. Оставайтесь с нами, качайте любимые фильмы, игры, сериалы, книги и музыку.