img image001 image001 image001 image001 image001 image001 image001 image001 image001 image001 image001 image001 image001 image001 image001

Planets Sun Sun Sun
Статистика раздачи
Автор: Снежана | Размер: 22.87 ГБ | Добавлен: 11 авг 2013
Раздают: 0    Качают: 1
Скачать торрент
Скачать торрент
Описание торрента

СообщениеДобавлено: 11 авг 2013 

World Superbike (WSBK) 2013 / Этап 09

Вид спорта: Мотогонки
Дата/Год выпуска: 03.08.13
Язык комментариев: русский (Руслан Гатаулин), английский

World Superbike (WSBK) 2013. Этап 09
Race 1.ts
Race 2.ts
SBK SuperPole.ts
SuperSport.ts
SuperStock 600. Race

Автор записи: SashaR.

Качество: DVB-S2 Remux
Формат видео: TS
Видео: AVC, 1920x1080, 16:9, 11.7 Mbps, 25 fps
Аудио: MP2, 192 Kbps, 48.0 kHz, 2 channels
C:World Superbike (WSBK) 2013. Ýòàï 09SBK SuperPole.ts
General #6
ID : 6 (0x6)
Complete name : C:World Superbike (WSBK) 2013. Ýòàï 09SBK SuperPole.ts
Format : MPEG-TS
File size : 8.05 GiB
Duration : 1h 27mn
Overall bit rate : 13.1 Mbps
Video #538
ID : 538 (0x21A)
Menu ID : 1 (0x1)
Format : AVC
Format/Info : Advanced Video Codec
Format profile : High@L4.1
Codec ID : 27
Duration : 1h 27mn
Bit rate : 11.7 Mbps
Stream size : 7.18 GiB (89%)
Language : English
Audio #638
ID : 638 (0x27E)
Menu ID : 1 (0x1)
Format : MPEG Audio
Format version : Version 1
Format profile : Layer 2
Codec ID : 4
Duration : 48ms
Bit rate mode : Constant
Bit rate : 192 Kbps
Channel(s) : 2 channels
Sampling rate : 48.0 KHz
Compression mode : Lossy
Stream size : 1.13 KiB (0%)
Language : German
Audio #738
ID : 738 (0x2E2)
Menu ID : 1 (0x1)
Format : MPEG Audio
Format version : Version 1
Format profile : Layer 2
Codec ID : 4
Duration : 48ms
Bit rate mode : Constant
Bit rate : 192 Kbps
Channel(s) : 2 channels
Sampling rate : 48.0 KHz
Compression mode : Lossy
Stream size : 1.13 KiB (0%)
Language : German
Audio #5391
ID : 5391 (0x150F)
Menu ID : 1 (0x1)
Format : MPEG Audio
Format version : Version 1
Format profile : Layer 2
Codec ID : 4
Duration : 48ms
Bit rate mode : Constant
Bit rate : 192 Kbps
Channel(s) : 2 channels
Sampling rate : 48.0 KHz
Compression mode : Lossy
Stream size : 1.13 KiB (0%)
Language : German
Audio #5392
ID : 5392 (0x1510)
Menu ID : 1 (0x1)
Format : MPEG Audio
Format version : Version 1
Format profile : Layer 2
Codec ID : 4
Duration : 48ms
Bit rate mode : Constant
Bit rate : 192 Kbps
Channel(s) : 2 channels
Sampling rate : 48.0 KHz
Compression mode : Lossy
Stream size : 1.13 KiB (0%)
Language : German

SuperPole - 01:27:37




   Похожие торренты   Торрент   Размер 
В этой теме нет новых непрочитанных сообщений. Мотоспорт. World Superbike (WSBK). SuperSport, SuperStock 600 - 2013. Этап 09. Silverstone (UK) (2013) SATRip

3 | 1

8.37 ГБ

В этой теме нет новых непрочитанных сообщений. Мотоспорт. World Superbike (WSBK). SuperSport, SuperStock 600 - 2013. Этап 09. Silverstone (UK) (2013) (2013) HDTV 1080i, 720p

0 | 1

26.86 ГБ

В этой теме нет новых непрочитанных сообщений. Мотоспорт. World Superbike (WSBK) 2013. Этап 08, Гонка 1 Moscow Raceway (Россия). Гонка 1 (2013) DVB-S2 Remux

3 | 2

5.71 ГБ

В этой теме нет новых непрочитанных сообщений. Мотоспорт. World Superbike (WSBK), 2013, Этап 10, Гонка 1-2, Суперспорт, Magny Cours (2013) HDTV 1080i, 720p

0 | 1

13.43 ГБ

В этой теме нет новых непрочитанных сообщений. Мотоспорт. World Superbike (WSBK), 2013, Этап 11, Гонка 1-2, Суперспорт, Суперпоул, Istanbul Park (2013) HDTV 1080i, 720p

0 | 1

20.74 ГБ

В этой теме нет новых непрочитанных сообщений. Мотоспорт. World Superbike 2013. WSBK. Всемирный супербайк. 03 Assen (2013) SATRip

1 | 2

2.46 ГБ

В этой теме нет новых непрочитанных сообщений. Мотоспорт. World Superbike 2013. WSBK. Всемирный супербайк. 02 Aragon (2013) Satremux

0 | 1

5.59 ГБ




Вы не можете начинать темы
Вы не можете отвечать на сообщения
Вы не можете редактировать свои сообщения
Вы не можете удалять свои сообщения
Вы не можете добавлять вложения

Перейти:  
Для Мосгорсуда, Роскомнадзора и рекламодателей: mosgorsud-torrent[собачка]yandex.ru
 Вход
ppkBB3cker v.2 © 2008-2014 @ PPK
[ Time : 0.044s | 17 Queries | GZIP : Off ]

Торрент трекер RUTOR.IN, Не можете зайти на rutor.org? Какой новый адрес рутор? Какое зеркало рутор? Не работает rutor.org и зеркала? Тогда наш торрент специально для вас. Rutor.in неофициальное зеркало rutor. В случае если у Вас заблокирован rutor или вдруг Вы не можете на него зайти, то Вы без труда сможете скачать бесплатно и без рекламы последние новинки кино, игр, сериалов и прочего у нас, на Rutor.in. Не нужно использовать прокси, чтобы зайти на рутор, достаточно воспользоваться нашим ресурсом. Все новые фильмы, игры, сериалы, книги и музыка за 2013 и 2014 годы через торрент бесплатно. Скачивайте фильмы в хорошем качестве, игры для пк, xbox, playstation без регистрации. У нас вы найдете новые Зарубежные сериалы и Русские сериалы 2013, 2014, 2015 годов. Оставайтесь с нами, качайте любимые фильмы, игры, сериалы, книги и музыку.
cron