img image001 image001 image001 image001 image001 image001 image001 image001 image001 image001 image001 image001 image001 image001 image001

Planets Sun Sun Sun
Статистика раздачи
Автор: Снежана | Размер: 4.03 ГБ | Добавлен: 18 дек 2013
Раздают: 1    Качают: 2
Скачать торрент
Скачать торрент
Описание торрента

СообщениеДобавлено: 18 дек 2013 

UFC Fight Night 26 (UFC on Fox Sports 1: Shogun vs. Sonnen) - Preliminary Fights

Вид спорта: MMA
Дата/Год выпуска: 17.08.2013
Язык комментариев: не требуется, англ
Описание: UFC on Fox Sports 1: Shogun vs. Sonnen (also known as UFC Fight Night 26) was a mixed martial arts event held on August 17, 2013 at the TD Garden in Boston, Massachusetts.

UFC.Fight.Night.26.Preliminary.Fights.720p.HDTV.x264-ORENJI
Date: Sat Aug 17 2013
CRF 23 preset slow

Автор рипа/записи: ORENJI
Качество: HDTV
Формат видео: MKV
Video: MPEG4 Video (H264) 1280x648 59.94fps
Audio: Dolby AC3 48000Hz 6ch 384kbps

General
Unique ID : 0 (0x0)
Complete name : ufc.fight.night.26.preliminary.fights.720p.hdtv.x264-orenji.mkv
Format : Matroska
Format version : Version 2
File size : 4.03 GiB
Duration : 1h 27mn
Overall bit rate : 6 616 Kbps
Encoded date : UTC 2010-02-22 21:41:29
Writing application : no_variable_data
Writing library : no_variable_data

Video
ID : 2
Format : AVC
Format/Info : Advanced Video Codec
Format profile : High@L4.1
Format settings, CABAC : Yes
Format settings, ReFrames : 5 frames
Codec ID : V_MPEG4/ISO/AVC
Duration : 1h 27mn
Bit rate : 6 101 Kbps
Width : 1 280 pixels
Height : 648 pixels
Display aspect ratio : 1.975
Frame rate mode : Constant
Frame rate : 59.880 fps
Original frame rate : 59.940 fps
Color space : YUV
Chroma subsampling : 4:2:0
Bit depth : 8 bits
Scan type : Progressive
Bits/(Pixel*Frame) : 0.123
Stream size : 3.72 GiB (92%)
Writing library : x264 core 135 r2345 f0c1c53
Encoding settings : cabac=1 / ref=5 / deblock=1:0:0 / analyse=0x3:0x113 / me=umh / subme=8 / psy=1 / psy_rd=1.00:0.00 / mixed_ref=1 / me_range=16 / chroma_me=1 / trellis=1 / 8x8dct=1 / cqm=0 / deadzone=21,11 / fast_pskip=1 / chroma_qp_offset=-2 / threads=12 / lookahead_threads=2 / sliced_threads=0 / nr=0 / decimate=1 / interlaced=0 / bluray_compat=0 / constrained_intra=0 / bframes=3 / b_pyramid=2 / b_adapt=2 / b_bias=0 / direct=3 / weightb=1 / open_gop=0 / weightp=2 / keyint=250 / keyint_min=25 / scenecut=40 / intra_refresh=0 / rc_lookahead=50 / rc=crf / mbtree=1 / crf=23.0 / qcomp=0.60 / qpmin=0 / qpmax=69 / qpstep=4 / ip_ratio=1.40 / aq=1:1.00
Language : English
Default : No
Forced : No
Matrix coefficients : BT.709

Audio
ID : 1
Format : AC-3
Format/Info : Audio Coding 3
Mode extension : CM (complete main)
Format settings, Endianness : Big
Codec ID : A_AC3
Duration : 1h 27mn
Bit rate mode : Constant
Bit rate : 384 Kbps
Channel(s) : 6 channels
Channel positions : Front: L C R, Side: L R, LFE
Sampling rate : 48.0 KHz
Bit depth : 16 bits
Compression mode : Lossy
Stream size : 240 MiB (6%)
Default : Yes
Forced : No





   Похожие торренты   Торрент   Размер 
В этой теме нет новых непрочитанных сообщений. Смешанные единоборства. MMA. UFC Fight Night 26. Shogun vs. Sonnen. Main Event [17.08] (2013) HDTVRip 720р | 60 fps

0 | 2

5.09 ГБ

В этой теме нет новых непрочитанных сообщений. Смешанные единоборства. MMA. UFC Fight Night 26. Shogun vs. Sonnen [17.08] (2013) HDTVRip

1 | 2

2.84 ГБ

В этой теме нет новых непрочитанных сообщений. Смешанные единоборства. UFC 171: Hendricks vs Lawler - Preliminary Fights (2014) HDTVRip 720p

12 | 14

2.14 ГБ

В этой теме нет новых непрочитанных сообщений. Смешанные единоборства. UFC 173: Barao vs Dillashaw. Preliminary Fights (2014) HDTVRip 720p

20 | 2

1.74 ГБ

В этой теме нет новых непрочитанных сообщений. Смешанные единоборства. MMA. UFC Fight Night 62: Maia vs. LaFlare (Preliminary Card + Main Card) [21.03] (2015) HDTVRip

74 | 13

2.64 ГБ

В этой теме нет новых непрочитанных сообщений. Смешанные единоборства. MMA. UFC Fight Night 63: Mendes vs. Lamas (Preliminary Card + Main Card) [04.04] (2015) HDTVRip

120 | 47

2.73 ГБ

В этой теме нет новых непрочитанных сообщений. Смешанные единоборства. MMA. UFC Fight Night 63: Mendes vs. Lamas (Preliminary Card + Main Card) [04.04] (2015) HDTVRip 720p

98 | 23

9.04 ГБ




Вы не можете начинать темы
Вы не можете отвечать на сообщения
Вы не можете редактировать свои сообщения
Вы не можете удалять свои сообщения
Вы не можете добавлять вложения

Перейти:  
Для Мосгорсуда, Роскомнадзора и рекламодателей: mosgorsud-torrent[собачка]yandex.ru
 Вход
ppkBB3cker v.2 © 2008-2014 @ PPK
[ Time : 0.039s | 14 Queries | GZIP : Off ]

Торрент трекер RUTOR.IN, Не можете зайти на rutor.org? Какой новый адрес рутор? Какое зеркало рутор? Не работает rutor.org и зеркала? Тогда наш торрент специально для вас. Rutor.in неофициальное зеркало rutor. В случае если у Вас заблокирован rutor или вдруг Вы не можете на него зайти, то Вы без труда сможете скачать бесплатно и без рекламы последние новинки кино, игр, сериалов и прочего у нас, на Rutor.in. Не нужно использовать прокси, чтобы зайти на рутор, достаточно воспользоваться нашим ресурсом. Все новые фильмы, игры, сериалы, книги и музыка за 2013 и 2014 годы через торрент бесплатно. Скачивайте фильмы в хорошем качестве, игры для пк, xbox, playstation без регистрации. У нас вы найдете новые Зарубежные сериалы и Русские сериалы 2013, 2014, 2015 годов. Оставайтесь с нами, качайте любимые фильмы, игры, сериалы, книги и музыку.