img image001 image001 image001 image001 image001 image001 image001 image001 image001 image001 image001 image001 image001 image001 image001

Planets Sun Sun Sun
Статистика раздачи
Автор: Снежана | Размер: 2.31 ГБ | Добавлен: 18 дек 2013
Раздают: 0    Качают: 2
Скачать торрент
Скачать торрент
Описание торрента

СообщениеДобавлено: 18 дек 2013 

Формула 1. Сезон 2013. Этап 11. Гран-при Бельгии. 2-я практика. Спорт1 SD

[img=right]http://i54.fastpic.ru/big/2013/0316/b9/b214f5ce747bdd8934d8211cc37986b9.jpg[/img]Год выпуска: 2013
Вид спорта: Формула 1
Комментарий: Профессиональный
Язык комментариев: Русский (В. Башмаков)
Доп. информация: IPTVRemux

Видео: MPEG2, 720x576i (16:9) 25 FPS, 3 076 Kbps
Аудио: MPEG Layer-II Stereo 192 kbps 48.0 kHz
01:38:59

Formula1.2013.Round11.Belgium.FP2.Sport1_BL.mpg
Format : MPEG-PS
File size : 2.31 GiB
Duration : 1h 38mn
Overall bit rate mode : Variable
Overall bit rate : 3 334 Kbps
Writing library : (c) 1998-2010 Womble Multimedia, Inc. / MPEG Video Wizard DVD 5.0.0.114 (01/2010) / Nov 13 2010

Video
ID : 224 (0xE0)
Format : MPEG Video
Format version : Version 2
Format profile : Main@Main
Format settings, BVOP : Yes
Format settings, Matrix : Custom
Format settings, GOP : Variable
Duration : 1h 38mn
Bit rate mode : Variable
Bit rate : 3 076 Kbps
Maximum bit rate : 15.0 Mbps
Width : 720 pixels
Height : 576 pixels
Display aspect ratio : 16:9
Frame rate : 25.000 fps
Standard : PAL
Color space : YUV
Chroma subsampling : 4:2:0
Bit depth : 8 bits
Scan type : Interlaced
Scan order : Top Field First
Compression mode : Lossy
Bits/(Pixel*Frame) : 0.297
Time code of first frame : 00:00:00:00
Time code source : Group of pictures header
Stream size : 2.13 GiB (92%)
Writing library : (c) 1998-2010 Womble Multimedia, Inc. / MPEG Video Wizard DVD 5.0.0.114 (01/2010) / Nov 13 2010

Audio
ID : 192 (0xC0)
Format : MPEG Audio
Format version : Version 1
Format profile : Layer 2
Duration : 1h 38mn
Bit rate mode : Constant
Bit rate : 192 Kbps
Channel(s) : 2 channels
Sampling rate : 48.0 KHz
Compression mode : Lossy
Delay relative to video : -80ms
Stream size : 136 MiB (6%)




   Похожие торренты   Торрент   Размер 
В этой теме нет новых непрочитанных сообщений. Формула 1. Сезон 2013. Этап 11. Гран-при Бельгии. 1 практика (2013) HDTVRip

0 | 2

1.43 ГБ

В этой теме нет новых непрочитанных сообщений. Формула 1. Сезон 2013. Этап 11. Гран-при Бельгии. 2 практика (2013) HDTVRip

0 | 2

1.41 ГБ

В этой теме нет новых непрочитанных сообщений. Формула 1. Сезон 2013. Этап 11. Гран-при Бельгии. 2 практика (2013) HDTV 1080i

0 | 2

9.13 ГБ

В этой теме нет новых непрочитанных сообщений. Формула 1. Сезон 2013. Этап 11. Гран-при Бельгии. 1 практика (2013) HDTV 1080i

0 | 2

9 ГБ

В этой теме нет новых непрочитанных сообщений. Формула 1. Сезон 2013. Этап 11. Гран-при Бельгии. 3 практика (2013) HDTVRip 720p

0 | 2

1.92 ГБ

В этой теме нет новых непрочитанных сообщений. Формула 1. Сезон 2013. Этап 03. Гран-при Китая. 2-я практика [Спорт 1 HD] (2013) IPTVRemux

1 | 1

2.19 ГБ

В этой теме нет новых непрочитанных сообщений. Формула 1. Сезон 2013. Этап 08. Гран При Великобритании. 1-я практика [Спорт 1] (2013) IPTVRemux

0 | 1

2.07 ГБ




Вы не можете начинать темы
Вы не можете отвечать на сообщения
Вы не можете редактировать свои сообщения
Вы не можете удалять свои сообщения
Вы не можете добавлять вложения

Перейти:  
Для Мосгорсуда, Роскомнадзора и рекламодателей: mosgorsud-torrent[собачка]yandex.ru
 Вход
ppkBB3cker v.2 © 2008-2014 @ PPK
[ Time : 0.040s | 15 Queries | GZIP : Off ]

cron