img image001 image001 image001 image001 image001 image001 image001 image001 image001 image001 image001 image001 image001 image001 image001

Planets Sun Sun Sun
Статистика раздачи
Автор: Снежана | Размер: 9.29 ГБ | Добавлен: 18 дек 2013
Раздают: 0    Качают: 1
Скачать торрент
Скачать торрент
Описание торрента

СообщениеДобавлено: 18 дек 2013 

#77

Вид спорта: Футбол
Год выпуска: 22.09.2013
Язык комментариев: Русский
Участники: Бразилия - Япония

Описание: Манчестер (Англия). Стадион Этихад - Сити оф Манчестер.
5-й тур 22 сентября 2013 года, воскресенье. 19:00 мск
Главный судья: Ховард Уэбб (Ротерхем, Сауз-Йоркшир, Англия)

Автор рипа.записи: MrDrax

Качество: HDTV
Продолжительность: 01:40:54

Формат: TS
Видео кодек: H.264
Аудио кодек: MP2
Свойства видео: 1920x1080, 25,000 кадров/сек, 12,3 Мбит/сек
Свойства аудио: 48,0 КГц, 2ch stereo, 192 Кбит/сек

4-1
Complete name : H:FootballАнглияМан. Сити - Ман. Юнайтед.ts
Format : MPEG-TS
File size : 9.29 GiB
Duration : 1h 40mn
Overall bit rate mode : Variable
Overall bit rate : 13.2 Mbps

Video
ID : 325 (0x145)
Menu ID : 1 (0x1)
Format : AVC
Format/Info : Advanced Video Codec
Format profile : High@L4.0
Format settings, CABAC : Yes
Format settings, ReFrames : 3 frames
Codec ID : 27
Duration : 1h 40mn
Bit rate : 12.3 Mbps
Width : 1 920 pixels
Height : 1 080 pixels
Display aspect ratio : 16:9
Frame rate : 25.000 fps
Standard : Component
Color space : YUV
Chroma subsampling : 4:2:0
Bit depth : 8 bits
Scan type : Interlaced
Scan order : Top Field First
Bits/(Pixel*Frame) : 0.238
Stream size : 8.69 GiB (94%)
Color primaries : BT.709
Transfer characteristics : BT.709
Matrix coefficients : BT.709

Audio
ID : 405 (0x195)
Menu ID : 1 (0x1)
Format : MPEG Audio
Format version : Version 1
Format profile : Layer 2
Codec ID : 3
Duration : 1h 40mn
Bit rate mode : Constant
Bit rate : 192 Kbps
Channel count : 2 channels
Sampling rate : 48.0 KHz
Compression mode : Lossy
Stream size : 139 MiB (1%)
Language : Russian



   Похожие торренты   Торрент   Размер 
В этой теме нет новых непрочитанных сообщений. Футбол. Чемпионат Англии 2013-2014. 28-й тур. Манчестер Юнайтед - Манчестер Сити [25.03] (2014) HDTV 1080i

24 | 7

9.68 ГБ

В этой теме нет новых непрочитанных сообщений. Футбол. Чемпионат Англии 2016-17. 26-й тур. Манчестер Сити - Манчестер Юнайтед [27.04] (2017) HDTV 1080i

0 | 0

6.11 ГБ

В этой теме нет новых непрочитанных сообщений. Футбол. Чемпионат Англии 2014-15. 32-й тур. Манчестер Юнайтед – Манчестер Сити [12.04] (2015) HDTV 1080i

23 | 5

9.47 ГБ

В этой теме нет новых непрочитанных сообщений. Футбол. Чемпионат Англии 2013-14. 1-й тур. Суонси Сити - Манчестер Юнайтед (2013) HDTV 1080i

0 | 1

9.69 ГБ

В этой теме нет новых непрочитанных сообщений. Футбол. Чемпионат Англии 2013-14. 9 тур. Манчестер Юнайтед - Сток Сити [26.10] (2013) HDTV 1080i

0 | 1

9.68 ГБ

В этой теме нет новых непрочитанных сообщений. Футбол. Чемпионат Англии 2013-14. 12-й тур. Кардифф Сити – Манчестер Юнайтед [24.11] (2013) HDTV 1080i

0 | 1

9.28 ГБ

В этой теме нет новых непрочитанных сообщений. Футбол. Чемпионат Англии 2012-13. 32-й тур. Манчестер Юнайтед - Манчестер Сити (2013) SATRip

1 | 1

1.38 ГБ




Вы не можете начинать темы
Вы не можете отвечать на сообщения
Вы не можете редактировать свои сообщения
Вы не можете удалять свои сообщения
Вы не можете добавлять вложения

Перейти:  
Для Мосгорсуда, Роскомнадзора и рекламодателей: mosgorsud-torrent[собачка]yandex.ru
 Вход
ppkBB3cker v.2 © 2008-2014 @ PPK
[ Time : 0.055s | 16 Queries | GZIP : Off ]

Торрент трекер RUTOR.IN, Не можете зайти на rutor.org? Какой новый адрес рутор? Какое зеркало рутор? Не работает rutor.org и зеркала? Тогда наш торрент специально для вас. Rutor.in неофициальное зеркало rutor. В случае если у Вас заблокирован rutor или вдруг Вы не можете на него зайти, то Вы без труда сможете скачать бесплатно и без рекламы последние новинки кино, игр, сериалов и прочего у нас, на Rutor.in. Не нужно использовать прокси, чтобы зайти на рутор, достаточно воспользоваться нашим ресурсом. Все новые фильмы, игры, сериалы, книги и музыка за 2013 и 2014 годы через торрент бесплатно. Скачивайте фильмы в хорошем качестве, игры для пк, xbox, playstation без регистрации. У нас вы найдете новые Зарубежные сериалы и Русские сериалы 2013, 2014, 2015 годов. Оставайтесь с нами, качайте любимые фильмы, игры, сериалы, книги и музыку.
cron