img image001 image001 image001 image001 image001 image001 image001 image001 image001 image001 image001 image001 image001 image001 image001

Planets Sun Sun Sun
Статистика раздачи
Автор: Снежана | Размер: 3.83 ГБ | Добавлен: 18 дек 2013
Раздают: 0    Качают: 3
Скачать торрент
Скачать торрент
Описание торрента

СообщениеДобавлено: 18 дек 2013 

Чемпионат России 2013-2014 / 9-й тур / Ростов (Ростов-на-Дону) - Зенит (Санкт-Петербург)

#77

Вид спорта: Футбол
Дата/Год выпуска: 22.09.13
Язык комментариев: русский (Генадий Орлов)

Автор рипа: SashaR.

Качество: HDTVRip
Формат видео: MP4
Видео: AVC, 1280x720, 16:9, 4633 Kbps, 50 fps
Аудио: AAC, 128 kbps, 44.1 kHz, 2 channels
C:Чемпионат России 2013-2014. 9-й тур. Ростов - Зенит.mp4
General
Complete name : C:Чемпионат России 2013-2014. 9-й тур. Ростов - Зенит.mp4
Format : MPEG-4
Format profile : Base Media
Codec ID : isom
File size : 3.83 GiB
Duration : 1h 54mn
Overall bit rate mode : Variable
Overall bit rate : 4 766 Kbps
Encoded date : UTC 2013-09-22 20:14:45
Tagged date : UTC 2013-09-22 20:14:45
Writing application : Lavf51.12.1
Video #1
ID : 1
Format : AVC
Format/Info : Advanced Video Codec
Format profile : Baseline@L3.2
Format settings, CABAC : No
Format settings, ReFrames : 1 frame
Format settings, GOP : M=1, N=12
Codec ID : avc1
Codec ID/Info : Advanced Video Coding
Duration : 1h 54mn
Bit rate : 4 633 Kbps
Width : 1 280 pixels
Height : 720 pixels
Display aspect ratio : 16:9
Frame rate mode : Constant
Frame rate : 50.000 fps
Color space : YUV
Chroma subsampling : 4:2:0
Bit depth : 8 bits
Scan type : Progressive
Bits/(Pixel*Frame) : 0.101
Stream size : 3.72 GiB (97%)
Encoded date : UTC 2013-09-22 20:14:45
Tagged date : UTC 2013-09-22 20:14:45
Audio #2
ID : 2
Format : AAC
Format/Info : Advanced Audio Codec
Format profile : LC
Codec ID : 40
Duration : 1h 53mn
Bit rate mode : Variable
Bit rate : 128 Kbps
Channel count : 2 channels
Channel positions : Front: L R
Sampling rate : 44.1 KHz
Compression mode : Lossy
Stream size : 104 MiB (3%)
Encoded date : UTC 2013-09-22 20:14:45
Tagged date : UTC 2013-09-22 20:14:45
01:54:57



   Похожие торренты   Торрент   Размер 
В этой теме нет новых непрочитанных сообщений. Футбол. Чемпионат России 2014-2015. 8-й тур. Ростов (Ростов-на-Дону) - Зенит (Санкт-Петербург) [20.09] (2014) HDTVRip 720р | 50 FPS

75 | 36

3.72 ГБ

В этой теме нет новых непрочитанных сообщений. Футбол. Чемпионат России 2013-14. 9-й тур. Ростов (Ростов-на-Дону) - Зенит (Санкт-Петербург) (2013) HDTV 1080i

0 | 2

12.7 ГБ

В этой теме нет новых непрочитанных сообщений. Футбол. Чемпионат России 2013-14. 9-й тур. Ростов (Ростов-на-Дону) - Зенит (Санкт-Петербург) (2013) SATRip

0 | 2

1.64 ГБ

В этой теме нет новых непрочитанных сообщений. Футбол. Чемпионат России 2013-2014. 1-й тур. Ростов (Ростов-на-Дону) - Терек (Грозный) (2013) HDTVRip

2 | 2

1.77 ГБ

В этой теме нет новых непрочитанных сообщений. Футбол. Чемпионат России 2013-14. 6-й тур. Локомотив (Москва) - Ростов (Ростов-на-Дону) (2013) HDTVRip 720p | 50 FPS

0 | 1

3.67 ГБ

В этой теме нет новых непрочитанных сообщений. Футбол. Чемпионат России 2013-2014. 3-й тур. Ростов (Ростов-на-Дону) - Томь (Томск) (2013) HDTVRip

2 | 1

1.67 ГБ

В этой теме нет новых непрочитанных сообщений. Футбол. Чемпионат России 2014-2015. 3-й тур. Локомотив (Москва) - Ростов (Ростов-на-Дону) [14.08] (2014) HDTVRip 720р | 50 FPS

8 | 2

4.03 ГБ




Вы не можете начинать темы
Вы не можете отвечать на сообщения
Вы не можете редактировать свои сообщения
Вы не можете удалять свои сообщения
Вы не можете добавлять вложения

Перейти:  
Для Мосгорсуда, Роскомнадзора и рекламодателей: mosgorsud-torrent[собачка]yandex.ru
 Вход
ppkBB3cker v.2 © 2008-2014 @ PPK
[ Time : 0.533s | 14 Queries | GZIP : Off ]

Торрент трекер RUTOR.IN, Не можете зайти на rutor.org? Какой новый адрес рутор? Какое зеркало рутор? Не работает rutor.org и зеркала? Тогда наш торрент специально для вас. Rutor.in неофициальное зеркало rutor. В случае если у Вас заблокирован rutor или вдруг Вы не можете на него зайти, то Вы без труда сможете скачать бесплатно и без рекламы последние новинки кино, игр, сериалов и прочего у нас, на Rutor.in. Не нужно использовать прокси, чтобы зайти на рутор, достаточно воспользоваться нашим ресурсом. Все новые фильмы, игры, сериалы, книги и музыка за 2013 и 2014 годы через торрент бесплатно. Скачивайте фильмы в хорошем качестве, игры для пк, xbox, playstation без регистрации. У нас вы найдете новые Зарубежные сериалы и Русские сериалы 2013, 2014, 2015 годов. Оставайтесь с нами, качайте любимые фильмы, игры, сериалы, книги и музыку.