img image001 image001 image001 image001 image001 image001 image001 image001 image001 image001 image001 image001 image001 image001 image001

Planets Sun Sun Sun
Статистика раздачи
Автор: Снежана | Размер: 5.15 ГБ | Добавлен: 19 дек 2013
Раздают: 4    Качают: 2
Скачать торрент
Скачать торрент
Описание торрента

СообщениеДобавлено: 19 дек 2013 

#77

Вид спорта: Бокс
Год выпуска: 05.10.2013
Язык комментариев: Русский
Участники: Кличко Владимир - Поветкин

Описание: Обладающий мировыми чемпионскими поясами по версиям WBA, IBF, WBO, IBO и журнала The Ring 37-летний украинец Владимир Кличко (60-3-0, 51 КО) встретится с регулярным чемпионом WBA 34-летним россиянином Александром Поветкиным (26-0-0, 18 КО). Таким образом, два олимпийских чемпиона, два чемпиона мира среди профессионалов поднимутся на ринг для того, чтобы наконец-то выяснить отношения между собой.

Автор рипа.записи: Mr. Drax

Качество: HDTV
Продолжительность: 52mn 9s

Формат: TS
Видео кодек: H.264
Аудио кодек: MP2
Свойства видео: 1920x1080, 25,000 кадров/сек, 13.2 Mbps
Свойства аудио: 48,0 КГц, 2ch stereo, 192 Кбит/сек

кличко вин
Format : MPEG-TS
File size : 5.15 GiB
Duration : 52mn 9s
Overall bit rate mode : Variable
Overall bit rate : 14.1 Mbps

Video
ID : 305 (0x131)
Menu ID : 1 (0x1)
Format : AVC
Format/Info : Advanced Video Codec
Format profile : High@L4.0
Format settings, CABAC : Yes
Format settings, ReFrames : 3 frames
Codec ID : 27
Duration : 52mn 9s
Bit rate : 13.2 Mbps
Width : 1 920 pixels
Height : 1 080 pixels
Display aspect ratio : 16:9
Frame rate : 25.000 fps
Standard : Component
Color space : YUV
Chroma subsampling : 4:2:0
Bit depth : 8 bits
Scan type : Interlaced
Scan order : Top Field First
Bits/(Pixel*Frame) : 0.255
Stream size : 4.82 GiB (94%)
Color primaries : BT.709
Transfer characteristics : BT.709
Matrix coefficients : BT.709

Audio
ID : 405 (0x195)
Menu ID : 1 (0x1)
Format : MPEG Audio
Format version : Version 1
Format profile : Layer 2
Codec ID : 3
Duration : 52mn 9s
Bit rate mode : Constant
Bit rate : 192 Kbps
Channel count : 2 channels
Sampling rate : 48.0 KHz
Compression mode : Lossy
Stream size : 71.6 MiB (1%)
Language : Russian

Text
ID : 505 (0x1F9)-888
Menu ID : 1 (0x1)
Format : Teletext Subtitle
Language : Russian

Menu
ID : 256 (0x100)
Menu ID : 1 (0x1)
Duration : 52mn 9s
List : 305 (0x131) (AVC) / 405 (0x195) (MPEG Audio, Russian) / 505 (0x1F9) ()
Language : / Russiann



   Похожие торренты   Торрент   Размер 
В этой теме нет новых непрочитанных сообщений. Бокс. Александр Поветкин - Владимир Кличко + Фильм "Накануне боя" (2013) HDTV 1080i

0 | 3

9.14 ГБ

В этой теме нет новых непрочитанных сообщений. Бокс. Владимир Кличко — Александр Поветкин [05.10] (2013) HDTVRip 720p | 50 fps

0 | 0

4.87 ГБ

В этой теме нет новых непрочитанных сообщений. Бокс. Бой за звание чемпиона мира. Владимир Кличко — Александр Поветкин (2013) DVB

3 | 2

1.96 ГБ

В этой теме нет новых непрочитанных сообщений. Бокс. Бой за звание чемпиона мира. Владимир Кличко — Александр Поветкин (2013) IPTVRip

10 | 3

992.75 МБ

В этой теме нет новых непрочитанных сообщений. Бокс. Бой за звание чемпиона мира. Владимир Кличко — Александр Поветкин (2013) HDTVRip 720p

11 | 4

1.89 ГБ

В этой теме нет новых непрочитанных сообщений. Бокс. Александр Поветкин - Владимир Кличко + Фильм "Накануне боя" (2013) HDTVRip

1 | 2

1.55 ГБ

В этой теме нет новых непрочитанных сообщений. Бокс. Владимир Кличко vs Франческо Пьянета [05.05] (2013) HDTV 1080i

13 | 1

2.85 ГБ




Вы не можете начинать темы
Вы не можете отвечать на сообщения
Вы не можете редактировать свои сообщения
Вы не можете удалять свои сообщения
Вы не можете добавлять вложения

Перейти:  
Для Мосгорсуда, Роскомнадзора и рекламодателей: mosgorsud-torrent[собачка]yandex.ru
 Вход
ppkBB3cker v.2 © 2008-2014 @ PPK
[ Time : 0.047s | 14 Queries | GZIP : Off ]

Торрент трекер RUTOR.IN, Не можете зайти на rutor.org? Какой новый адрес рутор? Какое зеркало рутор? Не работает rutor.org и зеркала? Тогда наш торрент специально для вас. Rutor.in неофициальное зеркало rutor. В случае если у Вас заблокирован rutor или вдруг Вы не можете на него зайти, то Вы без труда сможете скачать бесплатно и без рекламы последние новинки кино, игр, сериалов и прочего у нас, на Rutor.in. Не нужно использовать прокси, чтобы зайти на рутор, достаточно воспользоваться нашим ресурсом. Все новые фильмы, игры, сериалы, книги и музыка за 2013 и 2014 годы через торрент бесплатно. Скачивайте фильмы в хорошем качестве, игры для пк, xbox, playstation без регистрации. У нас вы найдете новые Зарубежные сериалы и Русские сериалы 2013, 2014, 2015 годов. Оставайтесь с нами, качайте любимые фильмы, игры, сериалы, книги и музыку.