img image001 image001 image001 image001 image001 image001 image001 image001 image001 image001 image001 image001 image001 image001 image001

Planets Sun Sun Sun
Статистика раздачи
Автор: Снежана | Размер: 1.55 ГБ | Добавлен: 18 дек 2013
Раздают: 1    Качают: 2
Скачать торрент
Скачать торрент
Описание торрента

СообщениеДобавлено: 18 дек 2013 

#77
Вид спорта: Бокс
Участники: Александр Поветкин, Владимир Кличко
Дата/Год выпуска: 05.10.2013
Язык комментариев: Русский

Описание: "Первый" канал представляет бой за звание чемпиона мира по боксу среди профессионалов между Владимиром Кличко и Александром Поветкиным, который пройдет в московском спорткомплексе "Олимпийский". На кон поставлены титулы Кличко (суперчемпион WBA, чемпион IBF и WBO) и Поветкина (пояс регулярного чемпиона WBA). Владимир уже назвал Александра самым сильным своим соперником в карьере, однако, планирует завершить бой нокаутом. Кличко - 60 побед на профессиональном ринге (51 - досрочно) и 3 поражения. Поветкин - 26 побед на проф.ринге (18 - нокаутом) и ни одного поражения.

Доп. информация: Релиз -


Рип чистый. Без посторонних надписей. Выкладывается как есть.

Качество: HDTVRip
Формат: AVI
Видео кодек: XVID
Аудио кодек: MP3
Видео: 720x400 (16:9) 23.976 fps 2 100 Kbps, 0.292 bit/pixel
Аудио: MPEG Audio, 48000Hz, 2 channels, 192 Кбит/сек
Александр Поветкин, Владимир Кличко

00:26:00 + 01:15:00




General
Complete name : D:ВыкладкаБой за звание чемпиона мира. Александр Поветкин - Владимир Кличко (2013, Бокс, HDTVRip) (MYDIMKA)1 - Накануне боя.avi
Format : AVI
Format/Info : Audio Video Interleave
File size : 356 MiB
Duration : 26mn 2s
Overall bit rate : 1 910 Kbps
Writing application : VirtualDubMod 1.5.10.3 | www.virtualdub-fr.org || (build 2550/release)
Writing library : VirtualDubMod build 2550/release

Video
ID : 0
Format : MPEG-4 Visual
Format profile : Advanced Simple@L5
Format settings, BVOP : 2
Format settings, QPel : No
Format settings, GMC : No warppoints
Format settings, Matrix : Default (H.263)
Codec ID : XVID
Codec ID/Hint : XviD
Duration : 26mn 2s
Bit rate : 1 708 Kbps
Width : 720 pixels
Height : 400 pixels
Display aspect ratio : 16:9
Frame rate : 25.000 fps
Color space : YUV
Chroma subsampling : 4:2:0
Bit depth : 8 bits
Scan type : Progressive
Compression mode : Lossy
Bits/(Pixel*Frame) : 0.237
Stream size : 318 MiB (89%)
Writing library : XviD 1.2.1 (UTC 2008-12-04)

Audio
ID : 1
Format : MPEG Audio
Format version : Version 1
Format profile : Layer 3
Codec ID : 55
Codec ID/Hint : MP3
Duration : 26mn 2s
Bit rate mode : Constant
Bit rate : 192 Kbps
Channel count : 2 channels
Sampling rate : 48.0 KHz
Compression mode : Lossy
Stream size : 35.8 MiB (10%)
Alignment : Aligned on interleaves
Interleave, duration : 40 ms (1.00 video frame)
Interleave, preload duration : 504 ms
Writing library : LAME3.99r
Encoding settings : -m s -V 4 -q 2 -lowpass 18.6 -b 192

Победа Кличко после 12-ти раундов единогласным решением судей



   Похожие торренты   Торрент   Размер 
В этой теме нет новых непрочитанных сообщений. Бокс. Александр Поветкин - Владимир Кличко + Фильм "Накануне боя" (2013) HDTV 1080i

0 | 3

9.14 ГБ

В этой теме нет новых непрочитанных сообщений. Бокс. Бой за звание чемпиона мира. Владимир Кличко — Александр Поветкин (2013) HDTVRip 720p

11 | 4

1.89 ГБ

В этой теме нет новых непрочитанных сообщений. Бокс . Владимир Кличко — Александр Поветкин [05.10] (2013) HDTV 1080i

4 | 2

5.15 ГБ

В этой теме нет новых непрочитанных сообщений. Бокс. Бой за звание чемпиона мира. Владимир Кличко — Александр Поветкин (2013) DVB

3 | 2

1.96 ГБ

В этой теме нет новых непрочитанных сообщений. Бокс. Бой за звание чемпиона мира. Владимир Кличко — Александр Поветкин (2013) IPTVRip

10 | 3

992.75 МБ

В этой теме нет новых непрочитанных сообщений. Бокс. Александр Поветкин - Анджей Вавжик / Alexander Povetkin VS Andrzej Wawrzyk [17.05] (2013) HDTVRip

22 | 3

1.36 ГБ

В этой теме нет новых непрочитанных сообщений. Бокс. Александр Поветкин - Майк Перес [22.05] (2015) HDTVRip | 60 fps

58 | 12

505.33 МБ




Вы не можете начинать темы
Вы не можете отвечать на сообщения
Вы не можете редактировать свои сообщения
Вы не можете удалять свои сообщения
Вы не можете добавлять вложения

Перейти:  
Для Мосгорсуда, Роскомнадзора и рекламодателей: mosgorsud-torrent[собачка]yandex.ru
 Вход
ppkBB3cker v.2 © 2008-2014 @ PPK
[ Time : 0.045s | 14 Queries | GZIP : Off ]

Торрент трекер RUTOR.IN, Не можете зайти на rutor.org? Какой новый адрес рутор? Какое зеркало рутор? Не работает rutor.org и зеркала? Тогда наш торрент специально для вас. Rutor.in неофициальное зеркало rutor. В случае если у Вас заблокирован rutor или вдруг Вы не можете на него зайти, то Вы без труда сможете скачать бесплатно и без рекламы последние новинки кино, игр, сериалов и прочего у нас, на Rutor.in. Не нужно использовать прокси, чтобы зайти на рутор, достаточно воспользоваться нашим ресурсом. Все новые фильмы, игры, сериалы, книги и музыка за 2013 и 2014 годы через торрент бесплатно. Скачивайте фильмы в хорошем качестве, игры для пк, xbox, playstation без регистрации. У нас вы найдете новые Зарубежные сериалы и Русские сериалы 2013, 2014, 2015 годов. Оставайтесь с нами, качайте любимые фильмы, игры, сериалы, книги и музыку.