img image001 image001 image001 image001 image001 image001 image001 image001 image001 image001 image001 image001 image001 image001 image001

Planets Sun Sun Sun
Статистика раздачи
Автор: Снежана | Размер: 9.14 ГБ | Добавлен: 18 дек 2013
Раздают: 0    Качают: 3
Скачать торрент
Скачать торрент
Описание торрента

СообщениеДобавлено: 18 дек 2013 

#77

Вид спорта: Бокс
Участники: Александр Поветкин, Владимир Кличко
Дата/Год выпуска: 05.10.2013
Язык комментариев: Русский

Описание: "Первый" канал представляет бой за звание чемпиона мира по боксу среди профессионалов между Владимиром Кличко и Александром Поветкиным, который пройдет в московском спорткомплексе "Олимпийский". На кон поставлены титулы Кличко (суперчемпион WBA, чемпион IBF и WBO) и Поветкина (пояс регулярного чемпиона WBA). Владимир уже назвал Александра самым сильным своим соперником в карьере, однако, планирует завершить бой нокаутом. Кличко - 60 побед на профессиональном ринге (51 - досрочно) и 3 поражения. Поветкин - 26 побед на проф.ринге (18 - нокаутом) и ни одного поражения.

Доп. информация: Релиз -


Рип чистый. Без посторонних надписей. Выкладывается как есть.

Качество: HDTV 1080i
Контейнер: TS
Видео кодек: AVC
Аудио кодек: MP2
Видео: 1920x1080 (16:9) 25.000 fps 11.4 Mbps, 0.220 bit/pixel
Аудио: MP2 192 Kbps, 2 channels
Александр Поветкин, Владимир Кличко

00:26:02






General
ID : 1 (0x1)
Complete name : D:ВыкладкаБой за звание чемпиона мира. Александр Поветкин - Владимир Кличко (2013, Бокс, HDTV 1080i) (MYDIMKA)1 - Накануне боя.ts
Format : MPEG-TS
File size : 1.83 GiB
Duration : 26mn 2s
Overall bit rate mode : Variable
Overall bit rate : 10.0 Mbps

Video
ID : 305 (0x131)
Menu ID : 1 (0x1)
Format : AVC
Format/Info : Advanced Video Codec
Format profile : High@L4.0
Format settings, CABAC : Yes
Format settings, ReFrames : 3 frames
Codec ID : 27
Duration : 26mn 2s
Bit rate : 9 347 Kbps
Width : 1 920 pixels
Height : 1 080 pixels
Display aspect ratio : 16:9
Frame rate : 25.000 fps
Standard : Component
Color space : YUV
Chroma subsampling : 4:2:0
Bit depth : 8 bits
Scan type : Interlaced
Scan order : Top Field First
Bits/(Pixel*Frame) : 0.180
Stream size : 1.70 GiB (93%)
Color primaries : BT.709
Transfer characteristics : BT.709
Matrix coefficients : BT.709

Audio
ID : 405 (0x195)
Menu ID : 1 (0x1)
Format : MPEG Audio
Format version : Version 1
Format profile : Layer 2
Codec ID : 3
Duration : 26mn 2s
Bit rate mode : Constant
Bit rate : 192 Kbps
Channel count : 2 channels
Sampling rate : 48.0 KHz
Compression mode : Lossy
Delay relative to video : -40ms
Stream size : 35.8 MiB (2%)
Language : Englis

Скоро



   Похожие торренты   Торрент   Размер 
В этой теме нет новых непрочитанных сообщений. Бокс. Александр Поветкин - Владимир Кличко + Фильм "Накануне боя" (2013) HDTVRip

1 | 2

1.55 ГБ

В этой теме нет новых непрочитанных сообщений. Бокс . Владимир Кличко — Александр Поветкин [05.10] (2013) HDTV 1080i

4 | 2

5.15 ГБ

В этой теме нет новых непрочитанных сообщений. Бокс. Бой за звание чемпиона мира. Владимир Кличко — Александр Поветкин (2013) DVB

3 | 2

1.96 ГБ

В этой теме нет новых непрочитанных сообщений. Бокс. Бой за звание чемпиона мира. Владимир Кличко — Александр Поветкин (2013) IPTVRip

10 | 3

992.75 МБ

В этой теме нет новых непрочитанных сообщений. Бокс. Бой за звание чемпиона мира. Владимир Кличко — Александр Поветкин (2013) HDTVRip 720p

11 | 4

1.89 ГБ

В этой теме нет новых непрочитанных сообщений. Бокс. Владимир Кличко vs Франческо Пьянета [05.05] (2013) HDTV 1080i

13 | 1

2.85 ГБ

В этой теме нет новых непрочитанных сообщений. Бокс. Александр Поветкин - Анджей Вавжик / Alexander Povetkin VS Andrzej Wawrzyk [17.05] (2013) HDTV 1080i

11 | 11

1.98 ГБ




Вы не можете начинать темы
Вы не можете отвечать на сообщения
Вы не можете редактировать свои сообщения
Вы не можете удалять свои сообщения
Вы не можете добавлять вложения

Перейти:  
Для Мосгорсуда, Роскомнадзора и рекламодателей: mosgorsud-torrent[собачка]yandex.ru
 Вход
ppkBB3cker v.2 © 2008-2014 @ PPK
[ Time : 0.450s | 14 Queries | GZIP : Off ]

Торрент трекер RUTOR.IN, Не можете зайти на rutor.org? Какой новый адрес рутор? Какое зеркало рутор? Не работает rutor.org и зеркала? Тогда наш торрент специально для вас. Rutor.in неофициальное зеркало rutor. В случае если у Вас заблокирован rutor или вдруг Вы не можете на него зайти, то Вы без труда сможете скачать бесплатно и без рекламы последние новинки кино, игр, сериалов и прочего у нас, на Rutor.in. Не нужно использовать прокси, чтобы зайти на рутор, достаточно воспользоваться нашим ресурсом. Все новые фильмы, игры, сериалы, книги и музыка за 2013 и 2014 годы через торрент бесплатно. Скачивайте фильмы в хорошем качестве, игры для пк, xbox, playstation без регистрации. У нас вы найдете новые Зарубежные сериалы и Русские сериалы 2013, 2014, 2015 годов. Оставайтесь с нами, качайте любимые фильмы, игры, сериалы, книги и музыку.