img image001 image001 image001 image001 image001 image001 image001 image001 image001 image001 image001 image001 image001 image001 image001

Planets Sun Sun Sun
Статистика раздачи
Автор: Снежана | Размер: 8.16 ГБ | Добавлен: 18 дек 2013
Раздают: 3    Качают: 2
Скачать торрент
Скачать торрент
Описание торрента

СообщениеДобавлено: 18 дек 2013 

UFC 166: Velasquez vs. Dos Santos 3 - PPV

#77


Вид спорта: MMA
Участники: Бойцы MMA
Дата/Год выпуска: 19.10.2013
Язык комментариев: не требуется, Английский
Описание: MAIN CARD (10/19/13 – 10:00 pm EST)

Автор рипа/записи: Secludedly
Качество: HDTV 720p
Формат видео: TS
Видео: AVC, 1280 x 720, 59.940 fps, 6582 kbps
Аудио: AAC, stereo, 48 kHz, 128 kbps
[Heavyweight Championship]
Cain Velasquez (12-1) vs. Junior Dos Santos (16-2)

Daniel Cormier (12-0) vs. Roy Nelson (19-8)

Adlan Amagov (12-2-1) vs. TJ Waldburger (16-7)

Gilbert Melendez (21-3) vs. Diego Sanchez (24-5)

Gabriel Gonzaga (15-7) vs. Shawn Jordan (15-4)

John Dodson (14-6) vs. Darrell Montague (13-2)

Format : MPEG-TS
File size : 8.16 GiB
Duration : 2h 57mn
Overall bit rate mode : Variable
Overall bit rate : 6 582 Kbps
Maximum Overall bit rate : 18.0 Mbps

Video
ID : 4113 (0x1011)
Menu ID : 1 (0x1)
Format : AVC
Format/Info : Advanced Video Codec
Format profile : Main@L4.0
Format settings, CABAC : Yes
Format settings, ReFrames : 4 frames
Format settings, GOP : M=4, N=32
Codec ID : 27
Duration : 2h 57mn
Bit rate mode : Variable
Bit rate : 6 127 Kbps
Maximum bit rate : 20.0 Mbps
Width : 1 280 pixels
Height : 720 pixels
Display aspect ratio : 16:9
Frame rate : 59.940 fps
Color space : YUV
Chroma subsampling : 4:2:0
Bit depth : 8 bits
Scan type : Progressive
Bits/(Pixel*Frame) : 0.111
Stream size : 7.59 GiB (93%)
Color primaries : BT.709-5, BT.1361, IEC 61966-2-4, SMPTE RP177
Transfer characteristics : BT.709-5, BT.1361
Matrix coefficients : BT.709-5, BT.1361, IEC 61966-2-4 709, SMPTE RP177

Audio
ID : 4352 (0x1100)
Menu ID : 1 (0x1)
Format : AAC
Format/Info : Advanced Audio Codec
Format version : Version 2
Format profile : LC
Muxing mode : ADTS
Codec ID : 15
Duration : 2h 57mn
Bit rate mode : Constant / Variable / Variable
Bit rate : 128 Kbps
Minimum bit rate : 110 Kbps / 110 Kbps
Maximum bit rate : 199 Kbps / 199 Kbps
Channel(s) : 2 channels
Channel positions : Front: L R
Sampling rate : 48.0 KHz
Compression mode : Lossy
Delay relative to video : -13ms
Stream size : 163 MiB (2%)

02:57:24



Cain Velasquez победил Junior dos Santos техническим нокаутом (удары руками) - Round 5, 3:09
Daniel Cormier победил Roy Nelson единогласным решением судей (30-27, 30-27, 30-27)
Adlan Amagov победил T.J. Waldburger нокаутом (удары руками) - Round 1, 3:45
Gilbert Melendez победил Diego Sanchez единогласным решением судей (29-28, 30-27, 29-28)
Gabriel Gonzaga победил Shawn Jordan техническим нокаутом (удары руками) - Round 1, 1:33
John Dodson победил Darrell Montague нокаутом (удары руками) - Round 1, 4:15



   Похожие торренты   Торрент   Размер 
В этой теме нет новых непрочитанных сообщений. Смешанные единоборства. UFC 166: Velasquez vs. Dos Santos 3 - PPV + Prelims [19.10] (2013) HDTVRip-AVC

2 | 3

2.93 ГБ

В этой теме нет новых непрочитанных сообщений. Смешанные единоборства. UFC 211. Miocic vs. dos Santos 2. Основные бои [Матч! HD] [13.05] (2017) HDTVRip

23 | 4

2.44 ГБ

В этой теме нет новых непрочитанных сообщений. Смешанные единоборства. UFC 211. Miocic vs. dos Santos II (Full Event) [13.05] (2017) WEB-DL 720p

44 | 10

11.19 ГБ

В этой теме нет новых непрочитанных сообщений. Смешанные единоборства. UFC 211. Miocic vs. dos Santos II (Full Event) [13.05] (2017) WEB-DLRip

8 | 1

3.87 ГБ

В этой теме нет новых непрочитанных сообщений. Смешанные единоборства. К-1 Glory 11: Chicago (2013) HDTVRip 720p | 60 FPS

0 | 2

4.41 ГБ

В этой теме нет новых непрочитанных сообщений. Смешанные единоборства. UFC 167: St-Pierre vs. Hendricks - PPV [16.11] (2013) HDTVRip 720p | 60 fps

1 | 2

8.03 ГБ

В этой теме нет новых непрочитанных сообщений. Смешанные единоборства. UFC on FOX 10: Henderson vs Thomson [25.01] (2013) HDTVRip 720p

3 | 2

8.37 ГБ




Вы не можете начинать темы
Вы не можете отвечать на сообщения
Вы не можете редактировать свои сообщения
Вы не можете удалять свои сообщения
Вы не можете добавлять вложения

Перейти:  
Для Мосгорсуда, Роскомнадзора и рекламодателей: mosgorsud-torrent[собачка]yandex.ru
 Вход
ppkBB3cker v.2 © 2008-2014 @ PPK
[ Time : 2.808s | 15 Queries | GZIP : Off ]

cron