img image001 image001 image001 image001 image001 image001 image001 image001 image001 image001 image001 image001 image001 image001 image001

Planets Sun Sun Sun
Статистика раздачи
Автор: Снежана | Размер: 9.69 ГБ | Добавлен: 18 дек 2013
Раздают: 0    Качают: 1
Скачать торрент
Скачать торрент
Описание торрента

СообщениеДобавлено: 18 дек 2013 

#77


Вид спорта: Футбол
Год выпуска: 27.10.2013
Язык комментариев: Русский
Участники: Челси - Манчестер Сити

Описание: Лондон (Англия). Стадион Стэмфорд Бридж.
9-й тур 27 октября 2013 года, воскресенье. 20:00 мск
Главный судья: Ховард Уэбб (Ротерхем, Сауз-Йоркшир, Англия)

Автор рипа.записи: MrDrax

Качество: HDTV
Продолжительность: 01:43:29

Формат: TS
Видео кодек: H.264
Аудио кодек: MP2
Свойства видео: 1920x1080, 25,000 кадров/сек, 12,6 Мбит/сек
Свойства аудио: 48,0 КГц, 2ch stereo, 192 Кбит/сек

2-1
Format : MPEG-TS
File size : 9.69 GiB
Duration : 1h 43mn
Overall bit rate mode : Variable
Overall bit rate : 13.4 Mbps

Video
ID : 325 (0x145)
Menu ID : 1 (0x1)
Format : AVC
Format/Info : Advanced Video Codec
Format profile : High@L4.0
Format settings, CABAC : Yes
Format settings, ReFrames : 3 frames
Codec ID : 27
Duration : 1h 43mn
Bit rate : 12.6 Mbps
Width : 1 920 pixels
Height : 1 080 pixels
Display aspect ratio : 16:9
Frame rate : 25.000 fps
Standard : Component
Color space : YUV
Chroma subsampling : 4:2:0
Bit depth : 8 bits
Scan type : Interlaced
Scan order : Top Field First
Bits/(Pixel*Frame) : 0.242
Stream size : 9.07 GiB (94%)
Color primaries : BT.709
Transfer characteristics : BT.709
Matrix coefficients : BT.709

Audio
ID : 405 (0x195)
Menu ID : 1 (0x1)
Format : MPEG Audio
Format version : Version 1
Format profile : Layer 2
Codec ID : 3
Duration : 1h 43mn
Bit rate mode : Constant
Bit rate : 192 Kbps
Channel count : 2 channels
Sampling rate : 48.0 KHz
Compression mode : Lossy
Stream size : 142 MiB (1%)
Language : Russian



   Похожие торренты   Торрент   Размер 
В этой теме нет новых непрочитанных сообщений. Футбол. Чемпионат Англии 2012-13. 27-й тур. Манчестер Сити - Челси (2013) HDTV 1080i

0 | 1

10.67 ГБ

В этой теме нет новых непрочитанных сообщений. Футбол. Чемпионат Англии 2013-14. 24-й тур. Манчестер Сити - Челси [03.02] (2014) HDTV 1080i

0 | 1

10.8 ГБ

В этой теме нет новых непрочитанных сообщений. Футбол. Чемпионат Англии 2016-17. 31-й тур. Челси - Манчестер Сити [05.04] (2017) HDTV 1080i

0 | 0

7.52 ГБ

В этой теме нет новых непрочитанных сообщений. Футбол. Чемпионат Англии 2014-15. 23-й тур. Челси - Манчестер Сити [31.01] (2015) HDTV 1080i

10 | 2

8.51 ГБ

В этой теме нет новых непрочитанных сообщений. Футбол. Чемпионат Англии 2013-14. 5-й тур. Манчестер Сити - Манчестер Юнайтед [22.09] (2013) HDTV 1080i

0 | 1

9.29 ГБ

В этой теме нет новых непрочитанных сообщений. Футбол. Чемпионат Англии 2015-16. (2-й тур) Манчестер Сити(Манчестер) - Челси (Лондон) [16.08] (2015) HDTV 1080i от GeneralFilm

60 | 13

10.47 ГБ

В этой теме нет новых непрочитанных сообщений. Футбол. Чемпионат Англии 2013-14. 7-й тур. Норвич Сити - Челси (2013) HDTV 1080i

0 | 1

9.61 ГБ




Вы не можете начинать темы
Вы не можете отвечать на сообщения
Вы не можете редактировать свои сообщения
Вы не можете удалять свои сообщения
Вы не можете добавлять вложения

Перейти:  
Для Мосгорсуда, Роскомнадзора и рекламодателей: mosgorsud-torrent[собачка]yandex.ru
 Вход
ppkBB3cker v.2 © 2008-2014 @ PPK
[ Time : 0.023s | 15 Queries | GZIP : Off ]

cron