img image001 image001 image001 image001 image001 image001 image001 image001 image001 image001 image001 image001 image001 image001 image001

Planets Sun Sun Sun
Статистика раздачи
Автор: Снежана | Размер: 22.93 ГБ | Добавлен: 18 дек 2013
Раздают: 0    Качают: 2
Скачать торрент
Скачать торрент
Описание торрента

СообщениеДобавлено: 18 дек 2013 

Формула 1 / Сезон 2013 / Этап 18 / Остин, США / 1-я, 2-я практика / Sky Sport 1 HD

Вид спорта: Формула 1
Дата/Год выпуска: 15.11.13
Язык комментариев: немецкий

Автор записи: SashaR.

Качество: DVB-S2 Remux
Формат видео: TS
Видео: AVC, 1920x1080, 16:9, 12.3 Mbps, 25 fps
Аудио: AC-3, 192 Kbps, 48.0 kHz, 2 channels
Аудио: AC-3, 224 Kbps, 48.0 kHz, 2 channels
Аудио: AC-3, 384 Kbps, 48.0 kHz, 6 channels
J:Формула 1. Сезон 2013. Этап 18. США (Sky Sport 1 HD)1-я практика.ts
General #6
ID : 6 (0x6)
Complete name : J:Формула 1. Сезон 2013. Этап 18. США (Sky Sport 1 HD)1-я практика.ts
Format : MPEG-TS
File size : 12.4 GiB
Duration : 2h 8mn
Overall bit rate mode : Variable
Overall bit rate : 13.8 Mbps
Video #767
ID : 767 (0x2FF)
Menu ID : 129 (0x81)
Format : AVC
Format/Info : Advanced Video Codec
Format profile : High@L4.0
Format settings, CABAC : Yes
Format settings, ReFrames : 3 frames
Codec ID : 27
Duration : 2h 8mn
Bit rate : 12.3 Mbps
Width : 1 920 pixels
Height : 1 080 pixels
Display aspect ratio : 16:9
Frame rate : 25.000 fps
Standard : Component
Color space : YUV
Chroma subsampling : 4:2:0
Bit depth : 8 bits
Scan type : Interlaced
Scan order : Top Field First
Bits/(Pixel*Frame) : 0.237
Stream size : 11.0 GiB (89%)
Color primaries : BT.709
Transfer characteristics : BT.709
Matrix coefficients : BT.709
Audio #770
ID : 770 (0x302)
Menu ID : 129 (0x81)
Format : AC-3
Format/Info : Audio Coding 3
Mode extension : CM (complete main)
Format settings, Endianness : Big
Codec ID : 6
Duration : 2h 8mn
Bit rate mode : Constant
Bit rate : 192 Kbps
Channel count : 2 channels
Channel positions : Front: L R
Sampling rate : 48.0 KHz
Bit depth : 16 bits
Compression mode : Lossy
Delay relative to video : 17ms
Stream size : 176 MiB (1%)
Language : German
Language, more info : Clean effects
Audio #771
ID : 771 (0x303)
Menu ID : 129 (0x81)
Format : AC-3
Format/Info : Audio Coding 3
Mode extension : CM (complete main)
Format settings, Endianness : Big
Codec ID : 6
Duration : 2h 8mn
Bit rate mode : Constant
Bit rate : 384 Kbps
Channel count : 6 channels
Channel positions : Front: L C R, Side: L R, LFE
Sampling rate : 48.0 KHz
Bit depth : 16 bits
Compression mode : Lossy
Delay relative to video : 27ms
Stream size : 353 MiB (3%)
Language : German
Language, more info : Clean effects
Audio #772
ID : 772 (0x304)
Menu ID : 129 (0x81)
Format : AC-3
Format/Info : Audio Coding 3
Mode extension : CM (complete main)
Format settings, Endianness : Big
Codec ID : 6
Duration : 2h 8mn
Bit rate mode : Constant
Bit rate : 224 Kbps
Channel count : 2 channels
Channel positions : Front: L R
Sampling rate : 48.0 KHz
Bit depth : 16 bits
Compression mode : Lossy
Delay relative to video : -6ms
Stream size : 206 MiB (2%)
Language : English
Language, more info : Clean effects

1-я практика - 02:08:21
2-я практика - 01:46:52





   Похожие торренты   Торрент   Размер 
В этой теме нет новых непрочитанных сообщений. Формула 1. Сезон 2013. Этап 19. Гран-При Бразилии. 1-я, 2-я, 3-я практика, Квалификация (2013) DVB-S2 Remux

0 | 2

33.97 ГБ

В этой теме нет новых непрочитанных сообщений. Формула 1. Сезон 2013. Этап 09. Гран При Германии. Практика 02 (2013) DVB-S2 Remux 1080i

0 | 2

9.27 ГБ

В этой теме нет новых непрочитанных сообщений. Формула 1. Сезон 2013. Этап 17. Гран-при Абу-Даби. 1-я, 2-я, 3-я практика, Квалификация (2013) DVB-S2 Remux

0 | 1

32.27 ГБ

В этой теме нет новых непрочитанных сообщений. Формула 1. Сезон 2013. Этап 02. Гран При Малазии. 1-я, 2-я, 3-я практика, квалификация [Спорт 1 HD] (2013) DVB-S2 Remux 1080i

2 | 2

30.98 ГБ

В этой теме нет новых непрочитанных сообщений. Формула 1. Сезон 2013. Этап 12. Гран При Гран-при Италии. 1-я практика (2013) HDTVRip

0 | 1

1.42 ГБ

В этой теме нет новых непрочитанных сообщений. Формула 1. Сезон 2013. Этап 12. Гран При Гран-при Италии. 2-я практика (2013) HDTVRip

0 | 1

1.38 ГБ

В этой теме нет новых непрочитанных сообщений. Формула 1. Сезон 2013. Этап 12. Гран При Гран-при Италии. 3-я практика (2013) HDTVRip

0 | 1

1020.05 МБ




Вы не можете начинать темы
Вы не можете отвечать на сообщения
Вы не можете редактировать свои сообщения
Вы не можете удалять свои сообщения
Вы не можете добавлять вложения

Перейти:  
Для Мосгорсуда, Роскомнадзора и рекламодателей: mosgorsud-torrent[собачка]yandex.ru
 Вход
ppkBB3cker v.2 © 2008-2014 @ PPK
[ Time : 0.050s | 14 Queries | GZIP : Off ]

Торрент трекер RUTOR.IN, Не можете зайти на rutor.org? Какой новый адрес рутор? Какое зеркало рутор? Не работает rutor.org и зеркала? Тогда наш торрент специально для вас. Rutor.in неофициальное зеркало rutor. В случае если у Вас заблокирован rutor или вдруг Вы не можете на него зайти, то Вы без труда сможете скачать бесплатно и без рекламы последние новинки кино, игр, сериалов и прочего у нас, на Rutor.in. Не нужно использовать прокси, чтобы зайти на рутор, достаточно воспользоваться нашим ресурсом. Все новые фильмы, игры, сериалы, книги и музыка за 2013 и 2014 годы через торрент бесплатно. Скачивайте фильмы в хорошем качестве, игры для пк, xbox, playstation без регистрации. У нас вы найдете новые Зарубежные сериалы и Русские сериалы 2013, 2014, 2015 годов. Оставайтесь с нами, качайте любимые фильмы, игры, сериалы, книги и музыку.