img image001 image001 image001 image001 image001 image001 image001 image001 image001 image001 image001 image001 image001 image001 image001

Planets Sun Sun Sun
Статистика раздачи
Автор: Снежана | Размер: 1.56 ГБ | Добавлен: 18 дек 2013
Раздают: 6    Качают: 2
Скачать торрент
Скачать торрент
Описание торрента

СообщениеДобавлено: 18 дек 2013 

Bellator108 (Main Card)

Вид спорта: MMA
Участники: Бойцы MMA
Дата/Год выпуска: 15/11/2013
Язык комментариев: не требуется, Английский
Описание: MAIN CARD (15/11/2013 – 9:00 pm EST)
Автор рипа/записи: Secludedly
Доп. информация:

Качество: HDTVRip
Формат видео: MP4
Видео: AVC, 848x480, 29.970 fps, 2 610 Kbps Kbps
Аудио: AAC, stereo, 48.0 KHz, 180 Kbps
Format : MPEG-4
Format profile : Base Media / Version 2
Codec ID : mp42
File size : 1.56 GiB
Duration : 1h 19mn
Overall bit rate mode : Variable
Overall bit rate : 2 805 Kbps
Encoded date : UTC 2013-11-16 06:13:10
Tagged date : UTC 2013-11-16 07:02:12
Writing application : HandBrake 0.9.9 2013052900

Video
ID : 1
Format : AVC
Format/Info : Advanced Video Codec
Format profile : High@L3.1
Format settings, CABAC : Yes
Format settings, ReFrames : 4 frames
Codec ID : avc1
Codec ID/Info : Advanced Video Coding
Duration : 1h 19mn
Bit rate mode : Variable
Bit rate : 2 610 Kbps
Width : 848 pixels
Height : 480 pixels
Display aspect ratio : 16:9
Frame rate mode : Constant
Frame rate : 29.970 fps
Color space : YUV
Chroma subsampling : 4:2:0
Bit depth : 8 bits
Scan type : Progressive
Bits/(Pixel*Frame) : 0.214
Stream size : 1.45 GiB (93%)
Writing library : x264 core 130 r2273 b3065e6
Encoding settings : cabac=1 / ref=3 / deblock=1:0:0 / analyse=0x3:0x113 / me=umh / subme=7 / psy=1 / psy_rd=1.20:0.00 / mixed_ref=1 / me_range=24 / chroma_me=1 / trellis=0 / 8x8dct=1 / cqm=0 / deadzone=21,11 / fast_pskip=1 / chroma_qp_offset=-2 / threads=12 / lookahead_threads=2 / sliced_threads=0 / nr=0 / decimate=1 / interlaced=0 / bluray_compat=0 / constrained_intra=0 / bframes=3 / b_pyramid=2 / b_adapt=2 / b_bias=0 / direct=1 / weightb=1 / open_gop=0 / weightp=2 / keyint=300 / keyint_min=30 / scenecut=40 / intra_refresh=0 / rc_lookahead=50 / rc=abr / mbtree=1 / bitrate=2610 / ratetol=1.0 / qcomp=0.60 / qpmin=0 / qpmax=69 / qpstep=4 / ip_ratio=1.40 / aq=1:1.20
Encoded date : UTC 2013-11-16 06:13:10
Tagged date : UTC 2013-11-16 07:02:12
Color primaries : BT.709-5, BT.1361, IEC 61966-2-4, SMPTE RP177
Transfer characteristics : BT.709-5, BT.1361
Matrix coefficients : BT.709-5, BT.1361, IEC 61966-2-4 709, SMPTE RP177

Audio
ID : 2
Format : AAC
Format/Info : Advanced Audio Codec
Format profile : LC
Codec ID : 40
Duration : 1h 19mn
Bit rate mode : Variable
Bit rate : 180 Kbps
Maximum bit rate : 207 Kbps
Channel(s) : 2 channels
Channel positions : Front: L R
Sampling rate : 48.0 KHz
Compression mode : Lossy
Stream size : 102 MiB (6%)
Encoded date : UTC 2013-11-16 06:13:10
Tagged date : UTC 2013-11-16 07:02:11

Joey Beltran (14-9) vs. Quinton ‘Rampage’ Jackson (32-11)

{Heavyweight Championship}
Alexander Volkov (19-3) vs. Vitaly Minakov (12-0)

Marcos Galvao (14-6-1) vs. Tom McKenna (7-3)

[Featherweight Tournament Final]
Patricio ‘Pitbull’ Freire (20-2) vs. Justin Wilcox (13-5)

01:19:23



Quinton Jackson победил Joey Beltran техническим нокаутом (удары) – Round 1, 4:59
Vitaly Minakov победил Alexander Volkov техническим нокаутом (удары) – Round 1, 2:57
Marcos Galvao победил Tom McKenna техническим нокаутом (удары) – Round 1, 4:29
Patricio Freire победил Justin Wilcox техническим нокаутом (удары) – Round 1, 2:23
НЕ ПИШИТЕ РЕЗУЛЬТАТЫ В КОММЕНТАХ В ОТКРЫТОМ ВИДЕ. ТОЛЬКО ПОД СПОЙЛЕРОМ!
Спасибо за "Спасибо"



   Похожие торренты   Торрент   Размер 
В этой теме нет новых непрочитанных сообщений. Смешанные единоборства. MMA. Bellator Fighting Championships 98 - Main card + prelims [07.09] (2013) HDTVRip

1 | 2

3.14 ГБ

В этой теме нет новых непрочитанных сообщений. Смешанные единоборства. MMA. Bellator Fighting Championships 98 - Main card + prelims [07.09] (2013) HDTVRip 720р | 60 fps

0 | 2

6.77 ГБ

В этой теме нет новых непрочитанных сообщений. Смешанные единоборства. Bellator Fighting Championships 77 [Эфир от 19.10] (2012) HDTVRip

2 | 5

1.47 ГБ

В этой теме нет новых непрочитанных сообщений. Смешанные единоборства. Bellator Fighting Championships 88 [Эфир от 07.02] (2013) SATRip

0 | 5

1.36 ГБ

В этой теме нет новых непрочитанных сообщений. Смешанные единоборства. MMA. Bellator Fighting Championships 106. Michael Chandler (c) vs. Eddie Alvarez [02.11] (2013) IPTVRip

0 | 2

2.82 ГБ

В этой теме нет новых непрочитанных сообщений. Смешанные единоборства. MMA. Bellator Fighting Championships 100. Бен Сондерс – Даглас Лима + prelims [21.09] (2013) SATRip

0 | 2

1.89 ГБ

В этой теме нет новых непрочитанных сообщений. Смешанные единоборства. MMA. Bellator Fighting Championships 101. А.Сарнавский - М.Дэвис / А.Sarnavskiy vs М.Davis [27.09] (2013) SATRip

2 | 3

1.63 ГБ




Вы не можете начинать темы
Вы не можете отвечать на сообщения
Вы не можете редактировать свои сообщения
Вы не можете удалять свои сообщения
Вы не можете добавлять вложения

Перейти:  
Для Мосгорсуда, Роскомнадзора и рекламодателей: mosgorsud-torrent[собачка]yandex.ru
 Вход
ppkBB3cker v.2 © 2008-2014 @ PPK
[ Time : 0.020s | 16 Queries | GZIP : On ]

Торрент трекер RUTOR.IN, Не можете зайти на rutor.org? Какой новый адрес рутор? Какое зеркало рутор? Не работает rutor.org и зеркала? Тогда наш торрент специально для вас. Rutor.in неофициальное зеркало rutor. В случае если у Вас заблокирован rutor или вдруг Вы не можете на него зайти, то Вы без труда сможете скачать бесплатно и без рекламы последние новинки кино, игр, сериалов и прочего у нас, на Rutor.in. Не нужно использовать прокси, чтобы зайти на рутор, достаточно воспользоваться нашим ресурсом. Все новые фильмы, игры, сериалы, книги и музыка за 2013 и 2014 годы через торрент бесплатно. Скачивайте фильмы в хорошем качестве, игры для пк, xbox, playstation без регистрации. У нас вы найдете новые Зарубежные сериалы и Русские сериалы 2013, 2014, 2015 годов. Оставайтесь с нами, качайте любимые фильмы, игры, сериалы, книги и музыку.