img image001 image001 image001 image001 image001 image001 image001 image001 image001 image001 image001 image001 image001 image001 image001

Planets Sun Sun Sun
Статистика раздачи
Автор: Снежана | Размер: 1.46 ГБ | Добавлен: 18 дек 2013
Раздают: 75    Качают: 19
Скачать торрент
Скачать торрент
Описание торрента

СообщениеДобавлено: 18 дек 2013 

Правда Майка Тайсона
Mike Tyson: Undisputed Truth

Страна: США
Жанр: комедия, биографический
Год выпуска: 2013
Продолжительность: 01:21:36

Перевод: Любительский (одноголосый)
(Анатолий Кузичев)
Cубтитры: нет
Оригинальная аудиодорожка: английский

Режиссер:
Спайк Ли / Spike Lee
В ролях:
Майк Тайсон
Описание:
Документальный фильм, в котором Майк Тайсон рассказывает о себе и своей жизни.


Качество видео: HDTV Rip
Формат видео: AVI
Видео: 704x400 (1.76:1), 25 fps, XviD MPEG-4 ~1972 kbps avg, 0.28 bit/pixel
Аудио 1: 48 kHz, AC3 Dolby Digital, 3/2 (L,C,R,l,r) + LFE ch, ~384 kbps Russian
Аудио 2: 48 kHz, Microsoft MPEG, 2 ch, ~192.00 kbps avg kbps English



Общее
Полное имя : F:РипыPravda.Mayka.Taysona.2013.HDTVRip.avi
Формат : AVI
Формат/Информация : Audio Video Interleave
Размер файла : 1,46 Гбайт
Продолжительность : 1 ч. 21 м.
Общий поток : 2563 Кбит/сек
Программа кодирования : VirtualDubModRus 1.5.10.2 (build 2542/release)
Библиотека кодирования : VirtualDubMod build 2542/release

Видео
Идентификатор : 0
Формат : MPEG-4 Visual
Профиль формата : Advanced Simple@L5
Параметр BVOP формата : 1
Параметр QPel формата : Нет
Параметр GMC формата : Без точки перехода
Параметр матрицы формата : Выборочная
Идентификатор кодека : XVID
Идентификатор кодека/Подсказка : XviD
Продолжительность : 1 ч. 21 м.
Битрейт : 1973 Кбит/сек
Ширина : 704 пикселя
Высота : 400 пикселей
Соотношение сторон : 16:9
Частота кадров : 25,000 кадров/сек
Цветовое пространство : YUV
Субдискретизация насыщенности : 4:2:0
Битовая глубина : 8 бит
Тип развёртки : Прогрессивная
Метод сжатия : С потерями
Бит/(Пиксели*Кадры) : 0.280
Размер потока : 1,12 Гбайт (77%)
Библиотека кодирования : XviD 73

Аудио #1
Идентификатор : 1
Формат : AC-3
Формат/Информация : Audio Coding 3
Расширение режима : CM (complete main)
Параметр Endianness формата : Big
Идентификатор кодека : 2000
Продолжительность : 1 ч. 21 м.
Вид битрейта : Постоянный
Битрейт : 384 Кбит/сек
Каналы : 6 каналов
Расположение каналов : Front: L C R, Side: L R, LFE
Частота : 48,0 КГц
Битовая глубина : 16 бит
Метод сжатия : С потерями
Размер потока : 224 Мбайт (15%)
Выравнивание : Разделение по промежуткам
Продолжительность промежутка : 40 мс. (1,00 видеокадр)
Время предзагрузки промежутка : 500 мс.

Аудио #2
Идентификатор : 2
Формат : MPEG Audio
Версия формата : Version 1
Профиль формата : Layer 2
Идентификатор кодека : 50
Продолжительность : 1 ч. 21 м.
Вид битрейта : Постоянный
Битрейт : 192 Кбит/сек
Каналы : 2 канала
Частота : 48,0 КГц
Метод сжатия : С потерями
Размер потока : 112 Мбайт (7%)
Выравнивание : Соединение по промежуткам
Продолжительность промежутка : 40 мс. (1,00 видеокадр)
Время предзагрузки промежутка : 504 мс.



   Похожие торренты   Торрент   Размер 
В этой теме нет новых непрочитанных сообщений. Бокс. Майк Тайсон: Неоспоримая правда / Mike Tyson: Undisputed Truth [16.11] (2013) HDTVRip 720р

39 | 3

2.67 ГБ

В этой теме нет новых непрочитанных сообщений. Бокс. Майк Тайсон: Неоспоримая правда / Mike Tyson: Undisputed Truth [16.11] (2013) HDTV 1080i | P

56 | 13

3.06 ГБ

В этой теме нет новых непрочитанных сообщений. Майк Тайсон - Полная коллекция боёв / Mike Tyson's Fights - Full Collection (1981-2006) TVRip

214 | 102

25.19 ГБ

В этой теме нет новых непрочитанных сообщений. Бокс. Майк Альварадо - Руслан Проводников / Mike Alvarado vs Ruslan Provodnikov. Первый HD [19.10] (2013) HDTVRip

1 | 2

687.08 МБ

В этой теме нет новых непрочитанных сообщений. Бокс. Майк Альварадо - Руслан Проводников / Mike Alvarado vs Ruslan Provodnikov [19.10] (2013) HDTVRip 720р | 60 fps

4 | 2

3.61 ГБ

В этой теме нет новых непрочитанных сообщений. Бокс. ESPN Mike Tyson Knockout Edition [2 диска из 2] (2006) DVDRip от KINOREAKTOR

27 | 15

4.12 ГБ

В этой теме нет новых непрочитанных сообщений. Бокс. Майк Альварадо - Руслан Проводников / Mike Alvarado vs Ruslan Provodnikov. Первый HD [19.10] (2013) HDTV 1080i

1 | 4

4.77 ГБ




Вы не можете начинать темы
Вы не можете отвечать на сообщения
Вы не можете редактировать свои сообщения
Вы не можете удалять свои сообщения
Вы не можете добавлять вложения

Перейти:  
Для Мосгорсуда, Роскомнадзора и рекламодателей: mosgorsud-torrent[собачка]yandex.ru
 Вход
ppkBB3cker v.2 © 2008-2014 @ PPK
[ Time : 0.032s | 15 Queries | GZIP : Off ]

Торрент трекер RUTOR.IN, Не можете зайти на rutor.org? Какой новый адрес рутор? Какое зеркало рутор? Не работает rutor.org и зеркала? Тогда наш торрент специально для вас. Rutor.in неофициальное зеркало rutor. В случае если у Вас заблокирован rutor или вдруг Вы не можете на него зайти, то Вы без труда сможете скачать бесплатно и без рекламы последние новинки кино, игр, сериалов и прочего у нас, на Rutor.in. Не нужно использовать прокси, чтобы зайти на рутор, достаточно воспользоваться нашим ресурсом. Все новые фильмы, игры, сериалы, книги и музыка за 2013 и 2014 годы через торрент бесплатно. Скачивайте фильмы в хорошем качестве, игры для пк, xbox, playstation без регистрации. У нас вы найдете новые Зарубежные сериалы и Русские сериалы 2013, 2014, 2015 годов. Оставайтесь с нами, качайте любимые фильмы, игры, сериалы, книги и музыку.
cron