img image001 image001 image001 image001 image001 image001 image001 image001 image001 image001 image001 image001 image001 image001 image001

Planets Sun Sun Sun
Статистика раздачи
Автор: Снежана | Размер: 2.68 ГБ | Добавлен: 18 дек 2013
Раздают: 0    Качают: 1
Скачать торрент
Скачать торрент
Описание торрента

СообщениеДобавлено: 18 дек 2013 

#77
Чемпионат Испании 2013-14
__________________________________

Вид спорта: Футбол
Дата/Год выпуска: 01.12.2013
Язык комментариев: русский (Константин Генич)
Участники: Атлетик Б. - Барселона
Канал: Россия, НТВ+
__________________________________

Качество: HDTVRip
Формат видео: MPEG-4
Видео: H264, 1280x720, 3,5 Мбит/сек, 25,000 fps
Аудио: AC3, 128 Kbps, 2 channels, 48KHz

На неделе в Лиге чемпионов каталонцы потерпели первое поражение под руководством Херардо Мартино, уступив в Голландии местному «Аяксу» (1:2). В чемпионате Испании сине-гранатовые по-прежнему идут практически без потерь, лишь раз сыграв вничью за 14 поединков. Реабилитироваться за неудачный вояж в Амстердам «Барселона» попытается в столице басков, где ей будет противостоять местный «Атлетик». Красно-белые в текущем сезоне, похоже, хотят вернуться в верхнюю часть таблицы после прошлогоднего провала. Подопечные Эрнесто Вальверде занимают пятую строчку, рассчитывая оспорить попадание в Лигу чемпионов.

В составе «Барселоны» будут отсутствовать травмированные Лионель Месси, Жорди Альба, Джонатан дос Сантос, Исаак Куэнка и Виктор Вальдес. Последние матчи каталонцев пропустил Дани Алвес. Возможно, бразилец выйдет на поле, но его появление в стартовом составе маловероятно.

У «Атлетико» не будет травмированного нападающего Коке Солы, а также дисквалифицированного форварда Арица Адуриса.

00:52:28, 00:53:02

"Атлетик Б": Ираисос, Лапорт, Ираола, Баленсиага (Альбисуа 82’), Гурпеги, Итурраспе, Сусаета, Морено (Сан-Хосе 87’), Эррера, Муньяин (Ибай 86’), Токеро
Запасные: Беньят, Яго, Фернандес, Де Маркос

"Барселона": Пинто Хосе, Монтойя, Пике, Маскерано, Адриано, Хави (Роберто 78’), Иньеста (Педро 84’), Бускетс, Фабрегас, Санчес, Неймар
Запасные: Габбарон, Сонг, Траоре, Оласабаль, Бартра


1:0

Общее
Полное имя : (2013.12.01) Атлетик (Бильбао) - Барселона (Чемпионат Испании)1-й Тайм.mp4
Формат : MPEG-4
Профиль формата : Base Media
Идентификатор кодека : isom
Размер файла : 1,33 Гбайт
Продолжительность : 52 м.
Общий поток : 3636 Кбит/сек
Программа кодирования : Lavf52.64.2

Видео
Идентификатор : 1
Формат : AVC
Формат/Информация : Advanced Video Codec
Профиль формата : High@L3.1
Параметр CABAC формата : Да
Параметр ReFrames формата : 4 кадра
Идентификатор кодека : avc1
Идентификатор кодека/Информация : Advanced Video Coding
Продолжительность : 52 м.
Битрейт : 3504 Кбит/сек
Ширина : 1280 пикселей
Высота : 720 пикселей
Соотношение сторон : 16:9
Режим частоты кадров : Постоянный
Частота кадров : 25,000 кадров/сек
Цветовое пространство : YUV
Субдискретизация насыщенности : 4:2:0
Битовая глубина : 8 бит
Тип развёртки : Прогрессивная
Бит/(Пиксели*Кадры) : 0.152
Размер потока : 1,28 Гбайт (96%)
Основные цвета : BT.709
Характеристики трансфера : BT.709
Коэффициенты матрицы : BT.709

Аудио
Идентификатор : 2
Формат : AC-3
Формат/Информация : Audio Coding 3
Расширение режима : CM (complete main)
Параметр Endianness формата : Big
Идентификатор кодека : ac-3
Продолжительность : 52 м.
Duration_LastFrame : -32 мс.
Вид битрейта : Постоянный
Битрейт : 128 Кбит/сек
Каналы : 2 канала
Расположение каналов : Front: L R
Частота : 48,0 КГц
Битовая глубина : 16 бит
Метод сжатия : С потерями
Задержка видео : 200 мс.
Размер потока : 48,1 Мбайт (4%)
Язык : Russian

Автор рипа/записи: dav7dbecks



   Похожие торренты   Торрент   Размер 
В этой теме нет новых непрочитанных сообщений. Футбол. Чемпионат Испании 2012-13. 33-й тур. Атлетик Б (Бильбао) - Барселона (Барселона) (2013) SATRip

1 | 0

1.48 ГБ

В этой теме нет новых непрочитанных сообщений. Футбол. Чемпионат Испании 2015-16. 1-й тур. Атлетик (Бильбао) - Барселона (Барселона) [23.08] (2015) HDTVRip от runetzone

82 | 20

1.56 ГБ

В этой теме нет новых непрочитанных сообщений. Футбол. Чемпионат Испании 2012-13. 31-й тур. Атлетик (Бильбао) - Реал Мадрид (2013) HDTVRip 720p | 50 FPS

2 | 1

2.94 ГБ

В этой теме нет новых непрочитанных сообщений. Футбол. Кубок Испании 2014-15. Copa Del Rey. Финал. Атлетик Бильбао - Барселона [30.05] (2015) HDTVRip 720p | 50 fps

313 | 32

3.53 ГБ

В этой теме нет новых непрочитанных сообщений. Футбол. Чемпионат Испании 2012-13. 31-й тур. Атлетик (Бильбао) - Реал Мадрид (2013) SATRip

1 | 1

1.36 ГБ

В этой теме нет новых непрочитанных сообщений. Футбол. Чемпионат Испании 2014-15. 26-й тур. Атлетик Бильбао - Реал Мадрид [07.03] (2015) HDTVRip 720p | 50 fps

15 | 2

2.95 ГБ

В этой теме нет новых непрочитанных сообщений. Футбол. Чемпионат Испании 2011-12. 20-й тур. Атлетик (Бильбао) - Реал (Мадрид) (2012) HDTVRip 720p

0 | 2

2.81 ГБ




Вы не можете начинать темы
Вы не можете отвечать на сообщения
Вы не можете редактировать свои сообщения
Вы не можете удалять свои сообщения
Вы не можете добавлять вложения

Перейти:  
Для Мосгорсуда, Роскомнадзора и рекламодателей: mosgorsud-torrent[собачка]yandex.ru
 Вход
ppkBB3cker v.2 © 2008-2014 @ PPK
[ Time : 0.024s | 14 Queries | GZIP : Off ]

Торрент трекер RUTOR.IN, Не можете зайти на rutor.org? Какой новый адрес рутор? Какое зеркало рутор? Не работает rutor.org и зеркала? Тогда наш торрент специально для вас. Rutor.in неофициальное зеркало rutor. В случае если у Вас заблокирован rutor или вдруг Вы не можете на него зайти, то Вы без труда сможете скачать бесплатно и без рекламы последние новинки кино, игр, сериалов и прочего у нас, на Rutor.in. Не нужно использовать прокси, чтобы зайти на рутор, достаточно воспользоваться нашим ресурсом. Все новые фильмы, игры, сериалы, книги и музыка за 2013 и 2014 годы через торрент бесплатно. Скачивайте фильмы в хорошем качестве, игры для пк, xbox, playstation без регистрации. У нас вы найдете новые Зарубежные сериалы и Русские сериалы 2013, 2014, 2015 годов. Оставайтесь с нами, качайте любимые фильмы, игры, сериалы, книги и музыку.