img image001 image001 image001 image001 image001 image001 image001 image001 image001 image001 image001 image001 image001 image001 image001

Planets Sun Sun Sun
Статистика раздачи
Автор: Снежана | Размер: 1.37 ГБ | Добавлен: 18 дек 2013
Раздают: 0    Качают: 1
Скачать торрент
Скачать торрент
Описание торрента

СообщениеДобавлено: 18 дек 2013 

[imgright]http://pic4net.com/di-7E1ZT8.jpg" style="float:left;[/imgright][imgright]http://pic4net.com/di-X21VET.jpg[/imgright]
Чемпионат России 2013-2014
__________________________________

Вид спорта: Футбол
Дата/Год выпуска: 01.12.2013
Язык комментариев: Русский (Александр Лукьянов, Алексей Стрепетов)
Участники: Терек (Грозный) - Зенит (Санкт-Петербург)
Канал: Россия, 100ТВ
__________________________________

Качество: SATRip
Формат видео: AVI
Видео: XviD, 704x448, 25 fps, ~1850 kbps
Аудио: MP3, 2 канала, 48KHz, 128 Kbps


Сегодня играют самая не забивная команда ("Терек", 10 голов) и самая результативная ("Зенит", 37 мячей), а вот по части обороны 4-5-я позиция у "Зенита" (18 пропущенных вместе с ЦСКА) и 8-9-я у хозяев (22 пропущенных вместе с "Крыльями"). Напомним, что "Терек" ведет 6-матчевую без выигрышную серию, причем 3 последних игры закончились поражениями. У "Зенита" 3-матчевая без выигрышная и 2 последних поражения. В прошлом туре сине-бело-голубые прервали свою 16-матчевую голевую серию. Сегодня Рахимов не сможет рассчитывать на травмированных Городова, Радько, Лежара и Адилсона. За "Зенит" не сыграют Малафеев, Анюков, Широков, Данни и Кержаков.
Грозненский "Терек" перед своими болельщиками попробует набрать первые очки при новом наставнике - Рашиде Рахимове. В прошлых турах команда ничего не смогла поделать в гостях с набравшим ход московским ЦСКА и стабильным "Краснодаром", хотя определенные наработки мы увидели, а кубанцам было даже забито два гола. С одной стороны, сегодня в Грозный пожалует питерский "Зенит" - вроде как поводов для радости нет. Однако, команда Спаллетти уже около месяца не впечатляет и теряет очки в 3 турах подряд, добившись лишь 1 ничьей. Кого же прорвет сегодня? Претендентов на чемпионский титул или команду, которая мечтает покинуть зону вылета? Интересный вопрос. Однозначно, сине-бело-голубых устроит только победа иначе они могут потерять свое первое место в таблице. Для "Терека" же, который несомненно будет играть на победу, ничья будет хорошим подспорьем. Не будем забывать, что во вторник "Зенит" отыграл матч Лиги чемпионов, плюс имеет ряд травмированных игроков. Откровенно говоря, без Данни приходится туго. Один Халк не справляется, а если справляется, то не так, как этого ждут партнеры. Если же кризис лидера продолжится, то им надо будет молиться на то, чтобы осенняя часть первенства закончилась как можно раньше и считать дни до зимнего перерыва.

00:49:03, 00:49:40



1:1

2013-12-01 Терек - Зенит1.avi
Формат : AVI
Формат/Информация : Audio Video Interleave
Размер файла : 696 Мбайт
Продолжительность : 49 м.
Общий поток : 1985 Кбит/сек
Библиотека кодирования : TMPGEnc 4.0 XPress Version. 4.7.3.292

Видео
Идентификатор : 0
Формат : MPEG-4 Visual
Профиль формата : Advanced Simple@L5
Параметр BVOP формата : 2
Параметр QPel формата : Нет
Параметр GMC формата : Без точки перехода
Параметр матрицы формата : Default (H.263)
Режим смешивания : Сжатый битовый поток
Идентификатор кодека : XVID
Идентификатор кодека/Подсказка : XviD
Продолжительность : 49 м.
Битрейт : 1849 Кбит/сек
Ширина : 704 пикселя
Высота : 448 пикселей
Соотношение сторон : 16:10
Частота кадров : 25,000 кадров/сек
Цветовое пространство : YUV
Субдискретизация насыщенности : 4:2:0
Битовая глубина : 8 бит
Тип развёртки : Прогрессивная
Метод сжатия : С потерями
Бит/(Пиксели*Кадры) : 0.235
Размер потока : 649 Мбайт (93%)
Библиотека кодирования : XviD 1.2.1 (UTC 2008-12-04)

Аудио
Идентификатор : 1
Формат : MPEG Audio
Версия формата : Version 1
Профиль формата : Layer 3
Режим : Joint stereo
Расширение режима : MS Stereo
Идентификатор кодека : 55
Идентификатор кодека/Подсказка : MP3
Продолжительность : 49 м.
Вид битрейта : Постоянный
Битрейт : 128 Кбит/сек
Каналы : 2 канала
Частота : 48,0 КГц
Метод сжатия : С потерями
Размер потока : 44,9 Мбайт (6%)
Выравнивание : Разделение по промежуткам
Продолжительность промежутка : 250 мс. (6,25 видеокадров)
Время предзагрузки промежутка : 207 мс.


Автор рипа: dm77



   Похожие торренты   Торрент   Размер 
В этой теме нет новых непрочитанных сообщений. Футбол. Чемпионат России 2012-2013. 22-й тур. Терек - Зенит (2013) SATRip

0 | 0

1.69 ГБ

В этой теме нет новых непрочитанных сообщений. Футбол. Чемпионат России 2013-14. 8-й тур. Зенит (Санкт-Петербург) - Терек (Грозный) (2013) SATRip

0 | 2

1.73 ГБ

В этой теме нет новых непрочитанных сообщений. Футбол. Чемпионат России 2013-14. 18-й тур. Терек - Зенит [01.12] (2013) HDTVRip 720р от waPBX

0 | 1

2.16 ГБ

В этой теме нет новых непрочитанных сообщений. Футбол. Чемпионат России 2012-2013. 22-й тур. Терек - Зенит (2013) HDTVRip 720p | 50 FPS

0 | 0

3.53 ГБ

В этой теме нет новых непрочитанных сообщений. Футбол. Чемпионат России 2013-14. 8-й тур. Зенит (Санкт-Петербург) - Терек (Грозный) (2013) HDTV 1080i

0 | 2

13.56 ГБ

В этой теме нет новых непрочитанных сообщений. Футбол. Чемпионат России 2012-2013. 8-й тур. Зенит (Санкт-Петербург) - Терек (Грозный) (2012) SATRip

3 | 2

1.57 ГБ

В этой теме нет новых непрочитанных сообщений. Футбол. Чемпионат России 2012-2013. 21-й тур. Терек - Рубин (2013) SATRip

0 | 1

1.61 ГБ




Вы не можете начинать темы
Вы не можете отвечать на сообщения
Вы не можете редактировать свои сообщения
Вы не можете удалять свои сообщения
Вы не можете добавлять вложения

Перейти:  
Для Мосгорсуда, Роскомнадзора и рекламодателей: mosgorsud-torrent[собачка]yandex.ru
 Вход
ppkBB3cker v.2 © 2008-2014 @ PPK
[ Time : 0.886s | 15 Queries | GZIP : Off ]

cron