img image001 image001 image001 image001 image001 image001 image001 image001 image001 image001 image001 image001 image001 image001 image001

Planets Sun Sun Sun
Статистика раздачи
Автор: Снежана | Размер: 1.34 ГБ | Добавлен: 18 дек 2013
Раздают: 2    Качают: 4
Скачать торрент
Скачать торрент
Описание торрента

СообщениеДобавлено: 18 дек 2013 

#77

Информация о фильме
Название: Семинар по сыроедению. Реальный опыт людей
Год выпуска: 2013
Жанр: Семинар
Продолжительность: 01:55:17
Качество видео: CAMRip
Видеокодек: avc1
Битрейт видео: ~1 515 Kbps
Размер кадра: 1280х720
Аудиокодек: MP3
Битрейт аудио: 152 Kbps, 2 Ch, 44100 Hz
Другие мои раздачи можно посмотреть здесь:
Описание:
Интересный мотивирующий семинар по сыроедению для начинающих сыроедов.

Сыроедение - простая и эффективная система оздоровления организма без помощи медицины, без медикаментов, без хитроумных диет, суть которой состоит в питании сырой растительной пищей без термической обработки. Сыроедение - это не диета и не новомодный способ похудения (хотя лишний вес Вы обязательно сбросите, если он у вас есть). При этом Вам не придется ограничивать себя в еде - Вы можете есть столько, сколько хотите, и при этом оставаться здоровыми, стройными и энергичными. В отличие от большинства диет, Вам не потребуется огромная сила воли, разве что совсем немного на первых порах в этом видео сыроеды делятся своим опытом сыроедения.

Тысячи людей уже ощутили на себе целительную силу сыроедения. Теперь и у Вас есть возможность приобщиться к этой простой системе, созданной самой природой, простой и одновременно уникальной и неповторимой, как и все, созданное ею. Вы сможете избавиться от болезней, лишнего веса и вернуть себе былую молодость, радость жизни, забыть о посещении поликлиник и больниц. Ну а если Вы до сих пор молоды и здоровы - тем более у Вас есть шанс сохранить это состояние на многие десятки, а может и сотни лет.

Помните - Ваше здоровье только в Ваших руках! Медицина может лишь немного отсрочить старость и чуть-чуть отодвинуть болезни. Но сделать свой организм абсолютно здоровым и вечно молодым можете только Вы сами.

General
Полное имя Семинар по сыроедению. Реальный опыт людей.mp4
Формат : MPEG-4
Профиль формата : Base Media / Version 2
Идентификатор кодека : mp42
Размер файла : 1.34 GiB
Продолжительность : 1h 55mn
Режим общего битрейта : Variable
Общий поток : 1 670 Kbps
Дата кодирования : UTC 2012-06-24 19:05:31
Дата пометки : UTC 2012-06-24 19:05:31
gsst : 0
gstd : 6917501
gssd : BB2FB6C45HH1358530980253841
gshh : r2---sn-q5u5apox-3c2e.c.youtube.com

Video
Идентификатор : 1
Формат : AVC
Формат/Информация : Advanced Video Codec
Профиль формата : High@L3.1
Параметр CABAC формата : Yes
Параметр ReFrames формата : 1 frame
Параметр GOP формата : M=1, N=60
Идентификатор кодека : avc1
Идентификатор кодека/Информация : Advanced Video Coding
Продолжительность : 1h 55mn
Битрейт : 1 515 Kbps
Максимальный битрейт : 3 728 Kbps
Ширина : 1 280 pixels
Высота : 720 pixels
Соотношение сторон : 16:9
Режим частоты кадров : Variable
Частота кадров : 30.000 fps
Минимальная частота кадров : 20.000 fps
Максимальная частота кадров : 30.000 fps
Цветовое пространство : YUV
Субдискретизация насыщенности : 4:2:0
Битовая глубина : 8 bits
Тип развёртки : Progressive
Бит/(Пиксели*Кадры) : 0.055
Размер потока : 1.22 GiB (91%)
Дата пометки : UTC 2012-06-24 19:06:49

Audio
Идентификатор : 2
Формат : AAC
Формат/Информация : Advanced Audio Codec
Профиль формата : LC
Идентификатор кодека : 40
Продолжительность : 1h 55mn
Вид битрейта : Variable
Битрейт : 152 Kbps
Максимальный битрейт : 257 Kbps
Каналы : 2 channels
Расположение каналов : Front: L R
Частота : 44.1 KHz
Метод сжатия : Lossy
Размер потока : 125 MiB (9%)
Заголовок : IsoMedia File Produced by Google, 5-11-2011
Дата кодирования : UTC 2012-06-24 19:06:23
Дата пометки : UTC 2012-06-24 19:06:49









   Похожие торренты   Торрент   Размер 
В этой теме нет новых непрочитанных сообщений. Семинар по сыроедению. Реальный опыт людей (2013) MP3

96 | 4

105.56 МБ

В этой теме нет новых непрочитанных сообщений. GT Гонки 2: Реальный опыт / GT Racing 2: The Real Car Exp (2013) Android

776 | 23

974.62 МБ

В этой теме нет новых непрочитанных сообщений. Многолетний опыт людей - Завязываем галстук (2010) PDF

25 | 16

1.22 МБ

В этой теме нет новых непрочитанных сообщений. Заработок в интернет казино или как обманывают людей (2013) CAMRip

169 | 11

281.82 МБ

В этой теме нет новых непрочитанных сообщений. Реальный контакт с тонким миром (1994) CAMRip

6 | 9

618.45 МБ

В этой теме нет новых непрочитанных сообщений. Семинар Бублика Б.А. - Огород без хлопот (2008) CAMRip

114 | 21

1.54 ГБ

В этой теме нет новых непрочитанных сообщений. Семинар Юрия Илюхина - От RAW к глянцу (2010) CAMRip

20 | 3

567.02 МБ




Вы не можете начинать темы
Вы не можете отвечать на сообщения
Вы не можете редактировать свои сообщения
Вы не можете удалять свои сообщения
Вы не можете добавлять вложения

Перейти:  
Для Мосгорсуда, Роскомнадзора и рекламодателей: mosgorsud-torrent[собачка]yandex.ru
 Вход
ppkBB3cker v.2 © 2008-2014 @ PPK
[ Time : 0.043s | 15 Queries | GZIP : Off ]

Торрент трекер RUTOR.IN, Не можете зайти на rutor.org? Какой новый адрес рутор? Какое зеркало рутор? Не работает rutor.org и зеркала? Тогда наш торрент специально для вас. Rutor.in неофициальное зеркало rutor. В случае если у Вас заблокирован rutor или вдруг Вы не можете на него зайти, то Вы без труда сможете скачать бесплатно и без рекламы последние новинки кино, игр, сериалов и прочего у нас, на Rutor.in. Не нужно использовать прокси, чтобы зайти на рутор, достаточно воспользоваться нашим ресурсом. Все новые фильмы, игры, сериалы, книги и музыка за 2013 и 2014 годы через торрент бесплатно. Скачивайте фильмы в хорошем качестве, игры для пк, xbox, playstation без регистрации. У нас вы найдете новые Зарубежные сериалы и Русские сериалы 2013, 2014, 2015 годов. Оставайтесь с нами, качайте любимые фильмы, игры, сериалы, книги и музыку.
cron