img image001 image001 image001 image001 image001 image001 image001 image001 image001 image001 image001 image001 image001 image001 image001

Planets Sun Sun Sun
Статистика раздачи
Автор: Снежана | Размер: 307.46 МБ | Добавлен: 18 дек 2013
Раздают: 0    Качают: 1
Скачать торрент
Скачать торрент
Описание торрента

СообщениеДобавлено: 18 дек 2013 

Биатлон с Дмитрием Губерниевым. Сезон 2013/2014. Выпуск 2 (Эфир от 2013.11.30)

Год выпуска: 2013
Дата эфира: 30 ноября
Ведущие: Дмитрий Губерниев
Продолжительность: 00:26:25
Комментарий: Профессиональный
Язык комментариев: Русский
Описание: Для биатлонистов зима - это время мобилизации сил и полной концентрации. Для зрителей - начало интереснейших соревнований и сильных переживаний за сборную. В программе все, о чем хотят знать болельщики: новости и комментарии, интервью с лидерами соревнований и рассказы о российской команде.
В этом выпуске:
- Строили, строили и, наконец, построили. Ольга Зайцева - обладательница первого подиума в нынешнем сезоне.
- Погода в Эстерсунде - она как характер у Ильи Трифанова: переменчивая, порывистая и непредсказуемая.
- Где здесь российский спортсмен? Продолжаем привыкать к новой форме национальной сборной.
- Необычные Фуркады. Мартен и Симон после Ванкувера не общались почти два года!
- Биатлонные курьезы.
- Пародия на Дмитрия Губерниева от норвежского тележурналиста.
- Как Ветле Кристиансен со своим кумиром много лет назад сфотографировался, а теперь выступает в одной с ним команде.
И другое.
Автор рипа: sanchez2011
Качество: SATRip
Формат: AVI
Видео кодек: XviD
Аудио кодек: MP3
Видео: MPEG-4 Visual (H263) 704x400 (16:9) 25.00fps 1500kbps
Аудио: MPEG Audio Layer 3 48000Hz stereo 128kbps


General
Complete name : D:TorrentБиатлон. Сезон 2013-2014Биатлон с Губерниевым (AVI)Биатлон с Дмитрием Губерниевым. Выпуск 2 (Эфир от 2013.11.30).avi
Format : AVI
Format/Info : Audio Video Interleave
File size : 307 MiB
Duration : 26mn 25s
Overall bit rate : 1 626 Kbps
Director : sanchez2011
Writing application : VirtualDubMod 1.5.10.2 (build 2540/release)
Writing library : VirtualDubMod build 2540/release

Video
ID : 0
Format : MPEG-4 Visual
Format profile : Advanced Simple@L5
Format settings, BVOP : 2
Format settings, QPel : No
Format settings, GMC : No warppoints
Format settings, Matrix : Default (H.263)
Codec ID : XVID
Codec ID/Hint : XviD
Duration : 26mn 25s
Bit rate : 1 489 Kbps
Width : 704 pixels
Height : 400 pixels
Display aspect ratio : 16:9
Frame rate : 25.000 fps
Color space : YUV
Chroma subsampling : 4:2:0
Bit depth : 8 bits
Scan type : Progressive
Compression mode : Lossy
Bits/(Pixel*Frame) : 0.211
Stream size : 281 MiB (92%)
Writing library : XviD 64

Audio
ID : 1
Format : MPEG Audio
Format version : Version 1
Format profile : Layer 3
Mode : Joint stereo
Mode extension : MS Stereo
Codec ID : 55
Codec ID/Hint : MP3
Duration : 26mn 25s
Bit rate mode : Constant
Bit rate : 128 Kbps
Channel(s) : 2 channels
Sampling rate : 48.0 KHz
Compression mode : Lossy
Stream size : 24.2 MiB (8%)
Alignment : Aligned on interleaves
Interleave, duration : 40 ms (1.00 video frame)
Interleave, preload duration : 504 ms



   Похожие торренты   Торрент   Размер 
В этой теме нет новых непрочитанных сообщений. Биатлон с Дмитрием Губерниевым [Эфир от 25.11] (2012) SATRip

0 | 1

403.3 МБ

В этой теме нет новых непрочитанных сообщений. Биатлон с Дмитрием Губерниевым [Эфир от 01.12] (2012) SATRip

0 | 2

400.8 МБ

В этой теме нет новых непрочитанных сообщений. Биатлон с Дмитрием Губерниевым [Эфир от 18.01] (2012) SATRip

0 | 1

313.78 МБ

В этой теме нет новых непрочитанных сообщений. Биатлон с Дмитрием Губерниевым [Эфир от 24.11] (2012) SATRip

0 | 1

303.15 МБ

В этой теме нет новых непрочитанных сообщений. Биатлон с Дмитрием Губерниевым [Эфир от 02.03] (2012) SATRip

0 | 1

352.6 МБ

В этой теме нет новых непрочитанных сообщений. Биатлон с Дмитрием Губерниевым [Эфир от 07.12] (2012) SATRip

0 | 1

302.76 МБ

В этой теме нет новых непрочитанных сообщений. Биатлон с Дмитрием Губерниевым [Эфир от 09.03] (2012) SATRip

0 | 1

457.6 МБ




Вы не можете начинать темы
Вы не можете отвечать на сообщения
Вы не можете редактировать свои сообщения
Вы не можете удалять свои сообщения
Вы не можете добавлять вложения

Перейти:  
Для Мосгорсуда, Роскомнадзора и рекламодателей: mosgorsud-torrent[собачка]yandex.ru
 Вход
ppkBB3cker v.2 © 2008-2014 @ PPK
[ Time : 0.064s | 15 Queries | GZIP : Off ]

Торрент трекер RUTOR.IN, Не можете зайти на rutor.org? Какой новый адрес рутор? Какое зеркало рутор? Не работает rutor.org и зеркала? Тогда наш торрент специально для вас. Rutor.in неофициальное зеркало rutor. В случае если у Вас заблокирован rutor или вдруг Вы не можете на него зайти, то Вы без труда сможете скачать бесплатно и без рекламы последние новинки кино, игр, сериалов и прочего у нас, на Rutor.in. Не нужно использовать прокси, чтобы зайти на рутор, достаточно воспользоваться нашим ресурсом. Все новые фильмы, игры, сериалы, книги и музыка за 2013 и 2014 годы через торрент бесплатно. Скачивайте фильмы в хорошем качестве, игры для пк, xbox, playstation без регистрации. У нас вы найдете новые Зарубежные сериалы и Русские сериалы 2013, 2014, 2015 годов. Оставайтесь с нами, качайте любимые фильмы, игры, сериалы, книги и музыку.
cron