img image001 image001 image001 image001 image001 image001 image001 image001 image001 image001 image001 image001 image001 image001 image001

Planets Sun Sun Sun
Статистика раздачи
Автор: Снежана | Размер: 1.02 ГБ | Добавлен: 18 дек 2013
Раздают: 0    Качают: 1
Скачать торрент
Скачать торрент
Описание торрента

СообщениеДобавлено: 18 дек 2013 

Кубок Мира 2013-14. 3-й этап. Анси (Франция). Эстафета 4x7,5 км. Мужчины

Вид спорта: Биатлон
Комментарий: Профессиональный
Язык комментариев: Русский (Дмитрий Губерниев)
Описание: Мужская эстафета 4x7,5 км на третьем этапе кубка мира 2013/14 во французском Анси.


Автор рипа: sanchez2011
Качество: SATRip
Формат: AVI
Видео кодек: XviD
Аудио кодек: MP3
Видео: MPEG-4 Visual (H263) 720x464 (16:10) 25.00fps 1500kbps
Аудио: MPEG Audio Layer 3 48000Hz stereo 128kbps

Результаты

Продолжительность: 01:30:03 (гонка + цветочная церемония)

General
Complete name : D:TorrentБиатлон. Сезон 2013-20143-й этап. Анси (Франция)Кубок Мира 2013-14. 3-й этап. Анси (Франция). Эстафета 4x7,5 км. Мужчины.avi
Format : AVI
Format/Info : Audio Video Interleave
File size : 1.02 GiB
Duration : 1h 30mn
Overall bit rate : 1 627 Kbps
Director : sanchez2011
Writing application : VirtualDubMod 1.5.10.2 (build 2540/release)
Writing library : VirtualDubMod build 2540/release

Video
ID : 0
Format : MPEG-4 Visual
Format profile : Advanced Simple@L5
Format settings, BVOP : 2
Format settings, QPel : No
Format settings, GMC : No warppoints
Format settings, Matrix : Default (H.263)
Codec ID : XVID
Codec ID/Hint : XviD
Duration : 1h 30mn
Bit rate : 1 489 Kbps
Width : 720 pixels
Height : 464 pixels
Display aspect ratio : 16:10
Frame rate : 25.000 fps
Color space : YUV
Chroma subsampling : 4:2:0
Bit depth : 8 bits
Scan type : Progressive
Compression mode : Lossy
Bits/(Pixel*Frame) : 0.178
Stream size : 959 MiB (92%)
Writing library : XviD 64

Audio
ID : 1
Format : MPEG Audio
Format version : Version 1
Format profile : Layer 3
Mode : Joint stereo
Mode extension : MS Stereo
Codec ID : 55
Codec ID/Hint : MP3
Duration : 1h 30mn
Bit rate mode : Constant
Bit rate : 128 Kbps
Channel(s) : 2 channels
Sampling rate : 48.0 KHz
Compression mode : Lossy
Stream size : 82.4 MiB (8%)
Alignment : Aligned on interleaves
Interleave, duration : 40 ms (1.00 video frame)
Interleave, preload duration : 504 ms
Writing library : LAME3.98r
Encoding settings : -m j -V 4 -q 3 -lowpass 17 -b 128



   Похожие торренты   Торрент   Размер 
В этой теме нет новых непрочитанных сообщений. Биатлон. Кубок мира 2013/14. 3 этап. Эстафета. Женщины. Анси (Франция) [Россия 2] [12.12] (2013) SATRip от MediaClub

0 | 1

993.88 МБ

В этой теме нет новых непрочитанных сообщений. Биатлон. Кубок мира 2013/14. 3 этап. Спринт 10 км. Мужчины. Анси (Франция) [Россия 2] [13.12] (2013) SATRip

0 | 1

1020.1 МБ

В этой теме нет новых непрочитанных сообщений. Биатлон. Кубок мира 2013/14. 3 этап. Эстафета. Мужчины. Анси (Франция) [Спорт 1 HD] [12.12] (2013) HDTVRip

0 | 1

1.2 ГБ

В этой теме нет новых непрочитанных сообщений. Биатлон. Кубок мира 2013/14. 3 этап. Гонка преследования. Мужчины. Анси (Франция) [Россия 2] [15.12] (2013) SATRip от MediaClub

0 | 1

605.22 МБ

В этой теме нет новых непрочитанных сообщений. Биатлон. Кубок мира 2013/14. 3 этап. Эстафета. Мужчины. Анси (Франция) [Спорт 1 HD] [12.12] (2013) HDTV 1080i

0 | 1

8.35 ГБ

В этой теме нет новых непрочитанных сообщений. Биатлон. Кубок мира 2013/14. 3 этап. Спринт 7.5 км. Женщины. Анси (Франция) [Россия 2] [13.12] (2013) SATRip

0 | 1

922.31 МБ

В этой теме нет новых непрочитанных сообщений. Биатлон. Кубок мира 2013/14. 3 этап. Эстафета. Женщины. Анси (Франция) [Спорт 1 HD] [12.12] (2013) HDTVRip

0 | 1

1012.04 МБ




Вы не можете начинать темы
Вы не можете отвечать на сообщения
Вы не можете редактировать свои сообщения
Вы не можете удалять свои сообщения
Вы не можете добавлять вложения

Перейти:  
Для Мосгорсуда, Роскомнадзора и рекламодателей: mosgorsud-torrent[собачка]yandex.ru
 Вход
ppkBB3cker v.2 © 2008-2014 @ PPK
[ Time : 0.091s | 14 Queries | GZIP : Off ]

Торрент трекер RUTOR.IN, Не можете зайти на rutor.org? Какой новый адрес рутор? Какое зеркало рутор? Не работает rutor.org и зеркала? Тогда наш торрент специально для вас. Rutor.in неофициальное зеркало rutor. В случае если у Вас заблокирован rutor или вдруг Вы не можете на него зайти, то Вы без труда сможете скачать бесплатно и без рекламы последние новинки кино, игр, сериалов и прочего у нас, на Rutor.in. Не нужно использовать прокси, чтобы зайти на рутор, достаточно воспользоваться нашим ресурсом. Все новые фильмы, игры, сериалы, книги и музыка за 2013 и 2014 годы через торрент бесплатно. Скачивайте фильмы в хорошем качестве, игры для пк, xbox, playstation без регистрации. У нас вы найдете новые Зарубежные сериалы и Русские сериалы 2013, 2014, 2015 годов. Оставайтесь с нами, качайте любимые фильмы, игры, сериалы, книги и музыку.