img image001 image001 image001 image001 image001 image001 image001 image001 image001 image001 image001 image001 image001 image001 image001

Planets Sun Sun Sun
Статистика раздачи
Автор: Снежана | Размер: 706.96 МБ | Добавлен: 19 дек 2013
Раздают: 2    Качают: 2
Скачать торрент
Скачать торрент
Описание торрента

СообщениеДобавлено: 19 дек 2013 

#77

Информация о фильме
Название: Искусство полета
Оригинальное название: The Art of Flight
Год выхода: 2011
Жанр: документальный, приключения, спорт
Режиссер: Курт Морган

В ролях: Джейк Бловелт, Кларк Файанс, Джон Джексон, Джереми Джонс, Скотти Лаго, Марк Лэндвик, Пэт Мур, Николас Мюллер, Иро Ниемела, Давид Каррье Поршерон

О фильме:
Для иконы сноубординга Трэвиса Райса и его друзей, мировой элиты бэккантри фильм The Art of Flight стал идеальной возможностью заново определить - что в горах возможно, а что нет. В фильме принимают участие такие легендарные райдеры, как Джон Джексон, Джереми Джонс, Марк Лендвиг и Николас Мюллер. Испытайте вместе с командой проекта их взлеты (осваивание новых трюков, открытие новых склонов) и падения (лавины, травмы, неудачные совпадения) . The Art of Flight соединил правдивые истории, запредельное катание, потрясающие пейзажи, нереальное качество съемок и продакшна.Всё выполнено на высоком профессиональном уровне — как самими спортсменами, так и операторами.


Страна: США
Продолжительность: 01:20:37
Перевод: Любительский (одноголосый)
Субтитры: отсутствуют

Файл
Качество: HDRip
Видео кодек: XviD
Аудио кодек: MP3
Видео: 688x384 (1.79:1), 23.976 fps, XviD build 73 ~1090 kbps avg, 0.172 bit/pixel
Аудио: Русский: 48 kHz, MPEG Layer 3, 2 ch, ~128 kbps avg | Любительский (одноголосый)
Семпл

Рип от: BroadCastller

General
Complete name : E:TorrentThe.Art.of.Flight.2011.HDRip.700MB.avi
Format : AVI
Format/Info : Audio Video Interleave
File size : 707 MiB
Duration : 1h 20mn
Overall bit rate mode : Variable
Overall bit rate : 1 226 Kbps
Writing application : VirtualDubMod 1.5.10.3 | www.virtualdub-fr.org || (build 2550/release)
Writing library : VirtualDubMod build 2550/release

Video
ID : 0
Format : MPEG-4 Visual
Format profile : Advanced Simple@L5
Format settings, BVOP : 1
Format settings, QPel : No
Format settings, GMC : No warppoints
Format settings, Matrix : Custom
Codec ID : XVID
Codec ID/Hint : XviD
Duration : 1h 20mn
Bit rate : 1 090 Kbps
Width : 688 pixels
Height : 384 pixels
Display aspect ratio : 16:9
Frame rate : 23.976 fps
Color space : YUV
Chroma subsampling : 4:2:0
Bit depth : 8 bits
Scan type : Progressive
Compression mode : Lossy
Bits/(Pixel*Frame) : 0.172
Stream size : 628 MiB (89%)
Writing library : XviD 73

Audio
ID : 1
Format : MPEG Audio
Format version : Version 1
Format profile : Layer 3
Codec ID : 55
Codec ID/Hint : MP3
Duration : 1h 20mn
Bit rate mode : Variable
Bit rate : 128 Kbps
Channel(s) : 2 channels
Sampling rate : 48.0 KHz
Compression mode : Lossy
Stream size : 71.2 MiB (10%)
Alignment : Aligned on interleaves
Interleave, duration : 24 ms (0.58 video frame)
Interleave, preload duration : 149 ms
Writing library : LAME3.99r
Encoding settings : -m s -V 4 -q 2 -lowpass 17 --abr 128



















   Похожие торренты   Торрент   Размер 
В этой теме нет новых непрочитанных сообщений. Сноубординг. Искусство Полёта / Snowboarding. The Art of Flight (2011) HDRip

64 | 7

1.46 ГБ

В этой теме нет новых непрочитанных сообщений. Сноубординг. Искусство Полёта / Snowboarding. The Art of Flight (2011) Blu Ray

3 | 4

22.18 ГБ

В этой теме нет новых непрочитанных сообщений. Искусство полета / The Art of Flight (2011) BDRip 1080p

250 | 7

5.76 ГБ

В этой теме нет новых непрочитанных сообщений. Искусство полета / The Art of Flight (2011) BDRip 1080p | 3D-Video | L1

90 | 10

9.97 ГБ

В этой теме нет новых непрочитанных сообщений. Искусство полёта + Бонусы / The Art of Flight (2011) BDRip 720p

51 | 10

6.29 ГБ

В этой теме нет новых непрочитанных сообщений. Сноубординг. Искусство Полёта / Snowboarding. The Art of Flight (2011) BRRip 720р

25 | 2

2.68 ГБ

В этой теме нет новых непрочитанных сообщений. Теория полета / The Theory of Flight (1998) DVDRip-AVC | Санаев

35 | 11

1.45 ГБ




Вы не можете начинать темы
Вы не можете отвечать на сообщения
Вы не можете редактировать свои сообщения
Вы не можете удалять свои сообщения
Вы не можете добавлять вложения

Перейти:  
Для Мосгорсуда, Роскомнадзора и рекламодателей: mosgorsud-torrent[собачка]yandex.ru
 Вход
ppkBB3cker v.2 © 2008-2014 @ PPK
[ Time : 0.050s | 14 Queries | GZIP : Off ]

Торрент трекер RUTOR.IN, Не можете зайти на rutor.org? Какой новый адрес рутор? Какое зеркало рутор? Не работает rutor.org и зеркала? Тогда наш торрент специально для вас. Rutor.in неофициальное зеркало rutor. В случае если у Вас заблокирован rutor или вдруг Вы не можете на него зайти, то Вы без труда сможете скачать бесплатно и без рекламы последние новинки кино, игр, сериалов и прочего у нас, на Rutor.in. Не нужно использовать прокси, чтобы зайти на рутор, достаточно воспользоваться нашим ресурсом. Все новые фильмы, игры, сериалы, книги и музыка за 2013 и 2014 годы через торрент бесплатно. Скачивайте фильмы в хорошем качестве, игры для пк, xbox, playstation без регистрации. У нас вы найдете новые Зарубежные сериалы и Русские сериалы 2013, 2014, 2015 годов. Оставайтесь с нами, качайте любимые фильмы, игры, сериалы, книги и музыку.