img image001 image001 image001 image001 image001 image001 image001 image001 image001 image001 image001 image001 image001 image001 image001

Planets Sun Sun Sun
Статистика раздачи
Автор: Снежана | Размер: 10.4 ГБ | Добавлен: 18 дек 2013
Раздают: 0    Качают: 2
Скачать торрент
Скачать торрент
Описание торрента

СообщениеДобавлено: 18 дек 2013 

Санный спорт. Кубок мира 2013-14. Парк Сити (США)

#77

Вид спорта: Санный спорт
Дата/Год выпуска: 13.12.13
Язык комментариев: русский, английский

Автор записи: SashaR.

Качество: DVB-S2 Remux
Формат видео: TS
Видео: AVC, 1920x1080, 16:9, 7 665 Kbps, 25 fps
Аудио: MP2, 192 Kbps, 48.0 kHz, 2 channels
F:Санный спорт. Кубок мира 2013-14. Парк Сити (США)Женщины. Одиночницы.ts
General #6
ID : 6 (0x6)
Complete name : F:Санный спорт. Кубок мира 2013-14. Парк Сити (США)Женщины. Одиночницы.ts
Format : MPEG-TS
File size : 2.81 GiB
Duration : 47mn 26s
Overall bit rate mode : Variable
Overall bit rate : 8 471 Kbps
Video #324
ID : 324 (0x144)
Menu ID : 12104 (0x2F48)
Format : AVC
Format/Info : Advanced Video Codec
Format profile : High@L4.0
Format settings, CABAC : Yes
Format settings, ReFrames : 3 frames
Codec ID : 27
Duration : 47mn 25s
Bit rate : 7 665 Kbps
Width : 1 920 pixels
Height : 1 080 pixels
Display aspect ratio : 16:9
Frame rate : 25.000 fps
Standard : Component
Color space : YUV
Chroma subsampling : 4:2:0
Bit depth : 8 bits
Scan type : Interlaced
Scan order : Top Field First
Bits/(Pixel*Frame) : 0.148
Stream size : 2.54 GiB (90%)
Color primaries : BT.709
Transfer characteristics : BT.709
Matrix coefficients : BT.709
Audio #404
ID : 404 (0x194)
Menu ID : 12104 (0x2F48)
Format : MPEG Audio
Format version : Version 1
Format profile : Layer 2
Codec ID : 4
Duration : 47mn 26s
Bit rate mode : Constant
Bit rate : 192 Kbps
Channel count : 2 channels
Sampling rate : 48.0 KHz
Compression mode : Lossy
Delay relative to video : 168ms
Stream size : 65.2 MiB (2%)
Language : Russian
Language, more info : Clean effects
Audio #424
ID : 424 (0x1A8)
Menu ID : 12104 (0x2F48)
Format : MPEG Audio
Format version : Version 1
Format profile : Layer 2
Codec ID : 4
Duration : 47mn 26s
Bit rate mode : Constant
Bit rate : 192 Kbps
Channel count : 2 channels
Sampling rate : 48.0 KHz
Compression mode : Lossy
Delay relative to video : 144ms
Stream size : 65.2 MiB (2%)
Language : English
Language, more info : Clean effects

Мужчины. Двойки - 00:36:46
Женщины. Одиночницы - 00:47:26
Мужчины. Одиночники. 2-я попытка - 00:27:22
Эстафета - 00:59:21







   Похожие торренты   Торрент   Размер 
В этой теме нет новых непрочитанных сообщений. Санный спорт. Кубок Мира 2013-14. Иглс (Австрия). Мужчины. Eurosport 2 [23.11] (2013) SATRip

0 | 1

1.23 ГБ

В этой теме нет новых непрочитанных сообщений. Санный спорт. Кубок Мира 2013-14. 1-й этап. Лиллехаммере (Норвегия). Мужчины. Eurosport [17.11] (2013) HDTVRip

0 | 1

1.06 ГБ

В этой теме нет новых непрочитанных сообщений. Санный спорт. Кубок Мира 2012-13. 9-й этап. Сочи (Россия) (2013) IPTVRip

0 | 1

4.64 ГБ

В этой теме нет новых непрочитанных сообщений. Биатлон. Кубок мира 2013/14. 3 этап. Анси (Франция) [Eurosport HD, Спорт 1 HD] [12-15.12] (2013) DVB-S2 Remux

1 | 4

56.23 ГБ

В этой теме нет новых непрочитанных сообщений. Горные лыжи. Кубок мира 2013-14. Куршавель (Франция). Женщины [Eurosport HD, Спорт 1 HD] [17.12] (2013) DVB-S2 Remux

0 | 2

22.51 ГБ

В этой теме нет новых непрочитанных сообщений. Горные лыжи. Кубок мира 2013-14. Val d'Isere (Франция). Мужчины [Eurosport HD, Спорт 1 HD] [14.12] (2013) DVB-S2 Remux

0 | 3

29.03 ГБ

В этой теме нет новых непрочитанных сообщений. Горные лыжи. Кубок мира 2013-14. Сент-Моритц (Швейцария). Супер-гигант. Женщины [Спорт 1 HD] [14.12] (2013) DVB-S2 Remux

0 | 2

5.66 ГБ




Вы не можете начинать темы
Вы не можете отвечать на сообщения
Вы не можете редактировать свои сообщения
Вы не можете удалять свои сообщения
Вы не можете добавлять вложения

Перейти:  
Для Мосгорсуда, Роскомнадзора и рекламодателей: mosgorsud-torrent[собачка]yandex.ru
 Вход
ppkBB3cker v.2 © 2008-2014 @ PPK
[ Time : 0.586s | 15 Queries | GZIP : Off ]

Торрент трекер RUTOR.IN, Не можете зайти на rutor.org? Какой новый адрес рутор? Какое зеркало рутор? Не работает rutor.org и зеркала? Тогда наш торрент специально для вас. Rutor.in неофициальное зеркало rutor. В случае если у Вас заблокирован rutor или вдруг Вы не можете на него зайти, то Вы без труда сможете скачать бесплатно и без рекламы последние новинки кино, игр, сериалов и прочего у нас, на Rutor.in. Не нужно использовать прокси, чтобы зайти на рутор, достаточно воспользоваться нашим ресурсом. Все новые фильмы, игры, сериалы, книги и музыка за 2013 и 2014 годы через торрент бесплатно. Скачивайте фильмы в хорошем качестве, игры для пк, xbox, playstation без регистрации. У нас вы найдете новые Зарубежные сериалы и Русские сериалы 2013, 2014, 2015 годов. Оставайтесь с нами, качайте любимые фильмы, игры, сериалы, книги и музыку.
cron