img image001 image001 image001 image001 image001 image001 image001 image001 image001 image001 image001 image001 image001 image001 image001

Planets Sun Sun Sun
Статистика раздачи
Автор: Снежана | Размер: 17.56 ГБ | Добавлен: 18 дек 2013
Раздают: 0    Качают: 2
Скачать торрент
Скачать торрент
Описание торрента

СообщениеДобавлено: 18 дек 2013 

Прыжки на лыжах с трамплина. Кубок мира 2013-2014. Titisee-Neustadt (Германия)

#77

Вид спорта: Прыжки на лыжах с трамплина
Дата/Год выпуска: 13.12.13
Язык комментариев: русский

Автор записи: SashaR.

Качество: DVB-S2 Remux
Формат видео: TS
Видео: AVC, 1920x1080, 16:9, 9 254 Kbps, 25 fps
Аудио: MP2, 192 kbps, 48 kHz, 2 channels
F:Прыжки на лыжах с трамплина. Кубок мира 2013-2014. Titisee-Neustadt (Германия)HS 140. 1-я и 2-я попытка.ts
General #6
ID : 6 (0x6)
Complete name : F:Прыжки на лыжах с трамплина. Кубок мира 2013-2014. Titisee-Neustadt (Германия)HS 140. 1-я и 2-я попытка.ts
Format : MPEG-TS
File size : 6.00 GiB
Duration : 1h 24mn
Overall bit rate mode : Variable
Overall bit rate : 10.1 Mbps
Video #324
ID : 324 (0x144)
Menu ID : 12104 (0x2F48)
Format : AVC
Format/Info : Advanced Video Codec
Format profile : High@L4.0
Format settings, CABAC : Yes
Format settings, ReFrames : 3 frames
Codec ID : 27
Duration : 1h 24mn
Bit rate : 9 254 Kbps
Width : 1 920 pixels
Height : 1 080 pixels
Display aspect ratio : 16:9
Frame rate : 25.000 fps
Standard : Component
Color space : YUV
Chroma subsampling : 4:2:0
Bit depth : 8 bits
Scan type : Interlaced
Scan order : Top Field First
Bits/(Pixel*Frame) : 0.179
Stream size : 5.47 GiB (91%)
Color primaries : BT.709
Transfer characteristics : BT.709
Matrix coefficients : BT.709
Audio #404
ID : 404 (0x194)
Menu ID : 12104 (0x2F48)
Format : MPEG Audio
Format version : Version 1
Format profile : Layer 2
Codec ID : 4
Duration : 1h 24mn
Bit rate mode : Constant
Bit rate : 192 Kbps
Channel count : 2 channels
Sampling rate : 48.0 KHz
Compression mode : Lossy
Delay relative to video : -7ms
Stream size : 116 MiB (2%)
Language : Russian
Language, more info : Clean effects
Audio #424
ID : 424 (0x1A8)
Menu ID : 12104 (0x2F48)
Format : MPEG Audio
Format version : Version 1
Format profile : Layer 2
Codec ID : 4
Duration : 1h 24mn
Bit rate mode : Constant
Bit rate : 192 Kbps
Channel count : 2 channels
Sampling rate : 48.0 KHz
Compression mode : Lossy
Delay relative to video : 113ms
Stream size : 116 MiB (2%)
Language : English
Language, more info : Clean effects

HS 140. Квалификация - 01:09:13
HS 140. 1-я и 2-я попытка - 01:24:37
HS 140. 1-я и 2-я попытка (15.12.13) - 01:43:42







   Похожие торренты   Торрент   Размер 
В этой теме нет новых непрочитанных сообщений. Прыжки на лыжах с трамплина. Кубок мира 2013-2014. Titisee-Neustadt (Германия). HS 140. Личный зачет [15.12] (2013) HDTV 1080i

2 | 2

6.61 ГБ

В этой теме нет новых непрочитанных сообщений. Прыжки на лыжах с трамплина. Кубок мира 2013-2014. Энгельберг (Швейцария). HS 137 [21.12] (2013) DVB-S2 Remux

0 | 1

7.32 ГБ

В этой теме нет новых непрочитанных сообщений. Прыжки на лыжах с трамплина. Кубок Мира 2012-13. Шонах (Германия). HS 106. Женщины (2013) IPTVRip

0 | 1

1.01 ГБ

В этой теме нет новых непрочитанных сообщений. Прыжки на лыжах с трамплина. Кубок Мира 2012-13. Оберсдорф (Германия) / HS 213. Мужчины [16.02] (2013) IPTVRip

0 | 2

1.32 ГБ

В этой теме нет новых непрочитанных сообщений. Прыжки на лыжах с трамплина. Кубок Мира 2012-13. Клигенталь (Германия). HS 140. Мужчины [13.02] (2013) IPTVRip

0 | 2

1.52 ГБ

В этой теме нет новых непрочитанных сообщений. Прыжки на лыжах с трамплина. Кубок мира 2013/14. Клингенталь, Германия. Мужчины. HS 140. Квалификация (2013) HDTVRip 720p

0 | 1

2.33 ГБ

В этой теме нет новых непрочитанных сообщений. Прыжки на лыжах с трамплина. Кубок Мира 2012-13. Виллинген (Германия) / HS 140. Мужчины. Команды [09.02] (2013) IPTVRip

1 | 2

1.16 ГБ




Вы не можете начинать темы
Вы не можете отвечать на сообщения
Вы не можете редактировать свои сообщения
Вы не можете удалять свои сообщения
Вы не можете добавлять вложения

Перейти:  
Для Мосгорсуда, Роскомнадзора и рекламодателей: mosgorsud-torrent[собачка]yandex.ru
 Вход
ppkBB3cker v.2 © 2008-2014 @ PPK
[ Time : 0.028s | 14 Queries | GZIP : Off ]

Торрент трекер RUTOR.IN, Не можете зайти на rutor.org? Какой новый адрес рутор? Какое зеркало рутор? Не работает rutor.org и зеркала? Тогда наш торрент специально для вас. Rutor.in неофициальное зеркало rutor. В случае если у Вас заблокирован rutor или вдруг Вы не можете на него зайти, то Вы без труда сможете скачать бесплатно и без рекламы последние новинки кино, игр, сериалов и прочего у нас, на Rutor.in. Не нужно использовать прокси, чтобы зайти на рутор, достаточно воспользоваться нашим ресурсом. Все новые фильмы, игры, сериалы, книги и музыка за 2013 и 2014 годы через торрент бесплатно. Скачивайте фильмы в хорошем качестве, игры для пк, xbox, playstation без регистрации. У нас вы найдете новые Зарубежные сериалы и Русские сериалы 2013, 2014, 2015 годов. Оставайтесь с нами, качайте любимые фильмы, игры, сериалы, книги и музыку.