img image001 image001 image001 image001 image001 image001 image001 image001 image001 image001 image001 image001 image001 image001 image001

Planets Sun Sun Sun
Статистика раздачи
Автор: Снежана | Размер: 56.23 ГБ | Добавлен: 18 дек 2013
Раздают: 1    Качают: 4
Скачать торрент
Скачать торрент
Описание торрента

СообщениеДобавлено: 18 дек 2013 

Кубок Мира 2013-14. 3-й этап. Анси (Франция)

Вид спорта: Биатлон
Дата/Год выпуска: 12-15.12.13
Язык комментариев: русский, английский

Автор записи: SashaR.

Записи: Записи с Eurosport HD - не сначала (особенность вещания).

Кубок Мира 2013-14. 3-й этап. Анси (Франция)
Гонка преследования 10 км. Женщины (Eurosport HD).ts 2.07 GB (2229594084)
Гонка преследования 10 км. Женщины (Спорт 1 HD).ts 3.60 GB (3868579024)
Гонка преследования 12.5 км. Мужчины. (Eurosport HD).ts 2.35 GB (2532201516)
Гонка преследования 12.5 км. Мужчины. (Спорт 1 HD).ts 3.75 GB (4029789588)
Спринт 10 км. Мужчины (Eurosport HD).ts 3.98 GB (4278706100)
Спринт 10 км. Мужчины (Спорт 1 HD).ts 8.36 GB (8983677384)
Спринт 7,5 км. Женщины (Eurosport HD).ts 3.40 GB (3660039836)
Спринт 7,5 км. Женщины (Спорт 1 HD).ts 6.78 GB (7290083144)
Эстафета 4x6 км. Женщины (Eurosport HD).ts 3.36 GB (3610834032)
Эстафета 4x6 км. Женщины (Спорт 1 HD).ts 7.69 GB (8265100212)
Эстафета 4x7,5 км. Мужчины (Eurosport HD).ts 2.49 GB (2682270824)
Эстафета 4x7,5 км. Мужчины (Спорт 1 HD).ts 8.32 GB (8943284644)

Качество: DVB-S2 Remux
Формат видео: TS
Видео: AVC, 1920x1080, 16:9, 8 281 Kbps, 25 fps
Аудио: MP2, 192 kbps, 48 kHz, 2 channels
Аудио: MP2, 192 kbps, 48 kHz, 2 channels
F:Кубок Мира 2013-14. 3-й этап. Анси (Франция)Эстафета 4x6 км. Женщины (Eurosport HD).ts
General #6
ID : 6 (0x6)
Complete name : F:Кубок Мира 2013-14. 3-й этап. Анси (Франция)Эстафета 4x6 км. Женщины (Eurosport HD).ts
Format : MPEG-TS
File size : 3.36 GiB
Duration : 52mn 47s
Overall bit rate mode : Variable
Overall bit rate : 9 119 Kbps
Video #324
ID : 324 (0x144)
Menu ID : 12104 (0x2F48)
Format : AVC
Format/Info : Advanced Video Codec
Format profile : High@L4.0
Format settings, CABAC : Yes
Format settings, ReFrames : 3 frames
Codec ID : 27
Duration : 52mn 46s
Bit rate : 8 281 Kbps
Width : 1 920 pixels
Height : 1 080 pixels
Display aspect ratio : 16:9
Frame rate : 25.000 fps
Standard : Component
Color space : YUV
Chroma subsampling : 4:2:0
Bit depth : 8 bits
Scan type : Interlaced
Scan order : Top Field First
Bits/(Pixel*Frame) : 0.160
Stream size : 3.05 GiB (91%)
Color primaries : BT.709
Transfer characteristics : BT.709
Matrix coefficients : BT.709
Audio #404
ID : 404 (0x194)
Menu ID : 12104 (0x2F48)
Format : MPEG Audio
Format version : Version 1
Format profile : Layer 2
Codec ID : 4
Duration : 52mn 47s
Bit rate mode : Constant
Bit rate : 192 Kbps
Channel count : 2 channels
Sampling rate : 48.0 KHz
Compression mode : Lossy
Delay relative to video : 40ms
Stream size : 72.5 MiB (2%)
Language : Russian
Language, more info : Clean effects
Audio #424
ID : 424 (0x1A8)
Menu ID : 12104 (0x2F48)
Format : MPEG Audio
Format version : Version 1
Format profile : Layer 2
Codec ID : 4
Duration : 52mn 47s
Bit rate mode : Constant
Bit rate : 192 Kbps
Channel count : 2 channels
Sampling rate : 48.0 KHz
Compression mode : Lossy
Delay relative to video : 16ms
Stream size : 72.5 MiB (2%)
Language : English
Language, more info : Clean effects

Эстафета 4x6 км. Женщины (Eurosport HD) - 00:52:47
Эстафета 4x6 км. Женщины (Спорт 1 HD) - 01:24:14
Эстафета 4x7,5 км. Мужчины (Eurosport HD) - 00:38:17
Эстафета 4x7,5 км. Мужчины (Спорт 1 HD) - 01:40:12
Спринт 7,5 км. Женщины (Спорт 1 HD) - 01:33:12
Спринт 7,5 км. Женщины (Eurosport HD) - 00:54:11
Спринт 10 км. Мужчины (Спорт 1 HD) - 01:38:00
Спринт 10 км. Мужчины (Eurosport HD) - 00:58:35
Гонка преследования 10 км. Женщины (Eurosport HD) - 00:30:07
Гонка преследования 10 км. Женщины (Спорт 1 HD) - 00:48:58
Гонка преследования 12.5 км. Мужчины. (Eurosport HD) - 00:34:17
Гонка преследования 12.5 км. Мужчины. (Спорт 1 HD) - 00:48:16





Раздача ведётся путём добавления новых серий; при каждом добавлении создаётся новый торрент. Чтобы начать докачку новой серии, пользователям необходимо сделать следующее:
(1) остановить скачивание,
(2) удалить старый торрент у себя из клиента (старые серии удалять не надо),
(3) скачать новый торрент и запустить его у себя в клиенте вместо старого, при этом указать клиенту путь в старую папку куда и должно происходить скачивание новых серий.

Ваш клиент при этом должен произвести хеширование (проверку) старой папки (если не производит сам - помогите ему сделать это), и будет докачивать только те серии которых у вас ещё нет. Старые серии при этом не удаляются, а продолжают раздаваться!

Eсли вы уже удалили старые серии, то предотвратить повторную закачку старых серий можно, отжав галочку в соответствующих местах при запуске нового торрента. По возможности, желательно не удалять старые серии как можно дольше чтобы релизёр не столько продолжал раздавать старые серии, а смог сконцентрироваться на новых.
Ссылка на ютуб
Ссылка на DepositFiles
Ссылка на клиент 2.2.1 При установке не обновляйте!!!
1) Выделяем торрент одним нажатием левой кнопкой мыши.



2) Заходим на вкладку "Files (Файлы)"



3) И меняем нажатием правой кнопкой мыши приоритет на "Normal (нормальный)"






   Похожие торренты   Торрент   Размер 
В этой теме нет новых непрочитанных сообщений. Биатлон. Кубок мира 2013/14. 3 этап. Спринт 10 км. Мужчины. Анси (Франция) [Eurosport HD] [13.12] (2013) DVB-S2 Remux

0 | 1

4.86 ГБ

В этой теме нет новых непрочитанных сообщений. Биатлон. Кубок мира 2013/14. 3 этап. Спринт 7.5 км. Женщины. Анси (Франция) [Eurosport HD] [13.12] (2013) DVB-S2 Remux

0 | 1

3.47 ГБ

В этой теме нет новых непрочитанных сообщений. Биатлон. Кубок мира 2013/14. 3 этап. Гонка преследования. Женщины. Анси (Франция) [Eurosport HD] [15.12] (2013) DVB-S2 Remux

0 | 3

2.08 ГБ

В этой теме нет новых непрочитанных сообщений. Биатлон. Кубок мира 2013/14. 3 этап. Гонка преследования. Мужчины. Анси (Франция) [Eurosport HD] [15.12] (2013) DVB-S2 Remux

0 | 13

2.39 ГБ

В этой теме нет новых непрочитанных сообщений. Биатлон. Кубок мира 2013/14. 3 этап. Спринт 7.5 км. Женщины. Анси (Франция) [Спорт 1 HD] [13.12] (2013) HDTVRip

0 | 1

1.09 ГБ

В этой теме нет новых непрочитанных сообщений. Биатлон. Кубок мира 2013/14. 3 этап. Эстафета. Женщины. Анси (Франция) [Спорт 1 HD] [12.12] (2013) HDTVRip

0 | 1

1012.04 МБ

В этой теме нет новых непрочитанных сообщений. Биатлон. Кубок мира 2013/14. 3 этап. Эстафета. Мужчины. Анси (Франция) [Спорт 1 HD] [12.12] (2013) HDTVRip

0 | 1

1.2 ГБ




Вы не можете начинать темы
Вы не можете отвечать на сообщения
Вы не можете редактировать свои сообщения
Вы не можете удалять свои сообщения
Вы не можете добавлять вложения

Перейти:  
Для Мосгорсуда, Роскомнадзора и рекламодателей: mosgorsud-torrent[собачка]yandex.ru
 Вход
ppkBB3cker v.2 © 2008-2014 @ PPK
[ Time : 0.053s | 15 Queries | GZIP : Off ]

Торрент трекер RUTOR.IN, Не можете зайти на rutor.org? Какой новый адрес рутор? Какое зеркало рутор? Не работает rutor.org и зеркала? Тогда наш торрент специально для вас. Rutor.in неофициальное зеркало rutor. В случае если у Вас заблокирован rutor или вдруг Вы не можете на него зайти, то Вы без труда сможете скачать бесплатно и без рекламы последние новинки кино, игр, сериалов и прочего у нас, на Rutor.in. Не нужно использовать прокси, чтобы зайти на рутор, достаточно воспользоваться нашим ресурсом. Все новые фильмы, игры, сериалы, книги и музыка за 2013 и 2014 годы через торрент бесплатно. Скачивайте фильмы в хорошем качестве, игры для пк, xbox, playstation без регистрации. У нас вы найдете новые Зарубежные сериалы и Русские сериалы 2013, 2014, 2015 годов. Оставайтесь с нами, качайте любимые фильмы, игры, сериалы, книги и музыку.