img image001 image001 image001 image001 image001 image001 image001 image001 image001 image001 image001 image001 image001 image001 image001

Planets Sun Sun Sun
Статистика раздачи
Автор: Снежана | Размер: 33.42 ГБ | Добавлен: 18 дек 2013
Раздают: 0    Качают: 2
Скачать торрент
Скачать торрент
Описание торрента

СообщениеДобавлено: 18 дек 2013 

Горные лыжи. Кубок мира 2013-14. St.Moritz (Швейцария). Женщины. Eurosport HD / HD Спорт

#77

Вид спорта: Горные лыжи
Дата/Год выпуска: 14.12.13
Язык комментариев: русский, английский

Автор записи: SashaR.

Качество: DVB-S2 Remux
Формат видео: TS
Видео: AVC, 1920x1080, 16:9, 8 264 Kbps, 25 fps
Аудио: MP2, 192 kbps, 48 kHz, 2 channels

Видео (ORF 1 HD): AVC, 1280x720, 16:9, 6 750 Kbps, 50 fps
Аудио: MP2, 192 kbps, 48 kHz, 2 channels
Аудио: AC-3, 448 kbps, 48 kHz, 2 channels
Горные лыжи. Кубок мира 2013-14. St.Moritz (Швейцария). Женщины
Super G (Eurosport HD).ts 4.29 GB (4606453832)
Super G (HD Спорт).ts 5.56 GB (5980240708)
Super G (ORF 1 HD).ts 5.20 GB (5586992460)
Гигантский слалом. 1-я попытка (Eurosport HD).ts 3.39 GB (3643790620)
Гигантский слалом. 1-я попытка (HD Спорт).ts 5.49 GB (5900447868)
Гигантский слалом. 2-я попытка (Eurosport HD).ts 3.67 GB (3942643128)
Гигантский слалом. 2-я попытка (HD Спорт).ts 5.79 GB (6220963052)

G:Горные лыжи. Кубок мира 2013-14. St.Moritz (Швейцария). ЖенщиныSuper G (Eurosport HD).ts
General #6
ID : 6 (0x6)
Complete name : G:Горные лыжи. Кубок мира 2013-14. St.Moritz (Швейцария). ЖенщиныSuper G (Eurosport HD).ts
Format : MPEG-TS
File size : 4.29 GiB
Duration : 1h 7mn
Overall bit rate mode : Variable
Overall bit rate : 9 101 Kbps
Video #324
ID : 324 (0x144)
Menu ID : 12104 (0x2F48)
Format : AVC
Format/Info : Advanced Video Codec
Format profile : High@L4.0
Format settings, CABAC : Yes
Format settings, ReFrames : 3 frames
Codec ID : 27
Duration : 1h 7mn
Bit rate : 8 264 Kbps
Width : 1 920 pixels
Height : 1 080 pixels
Display aspect ratio : 16:9
Frame rate : 25.000 fps
Standard : Component
Color space : YUV
Chroma subsampling : 4:2:0
Bit depth : 8 bits
Scan type : Interlaced
Scan order : Top Field First
Bits/(Pixel*Frame) : 0.159
Stream size : 3.89 GiB (91%)
Color primaries : BT.709
Transfer characteristics : BT.709
Matrix coefficients : BT.709
Audio #404
ID : 404 (0x194)
Menu ID : 12104 (0x2F48)
Format : MPEG Audio
Format version : Version 1
Format profile : Layer 2
Codec ID : 4
Duration : 1h 7mn
Bit rate mode : Constant
Bit rate : 192 Kbps
Channel count : 2 channels
Sampling rate : 48.0 KHz
Compression mode : Lossy
Delay relative to video : 121ms
Stream size : 92.7 MiB (2%)
Language : Russian
Language, more info : Clean effects
Audio #424
ID : 424 (0x1A8)
Menu ID : 12104 (0x2F48)
Format : MPEG Audio
Format version : Version 1
Format profile : Layer 2
Codec ID : 4
Duration : 1h 7mn
Bit rate mode : Constant
Bit rate : 192 Kbps
Channel count : 2 channels
Sampling rate : 48.0 KHz
Compression mode : Lossy
Delay relative to video : 97ms
Stream size : 92.7 MiB (2%)
Language : English
Language, more info : Clean effects

Super G (Eurosport HD) - 01:07:29
Super G (HD Спорт) - 01:02:15
Super G (ORF 1 HD) - 01:19:13
Гигантский слалом. 1-я попытка (Eurosport HD) - 00:49:11
Гигантский слалом. 1-я попытка (HD Спорт) - 01:00:03
Гигантский слалом. 2-я попытка (HD Спорт) - 00:57:15
Гигантский слалом. 2-я попытка (Eurosport HD) - 00:40:02







   Похожие торренты   Торрент   Размер 
В этой теме нет новых непрочитанных сообщений. Горные лыжи. Кубок мира 2013-14. Сент-Моритц (Швейцария). Супер-гигант. Женщины [Спорт 1 HD] [14.12] (2013) DVB-S2 Remux

0 | 2

5.66 ГБ

В этой теме нет новых непрочитанных сообщений. Горные лыжи. Кубок мира 2013-14. Сент-Моритц (Швейцария). Слалом-Гигант. Женщины [Eurosport] [15.12] (2013) IPTV

0 | 2

1.26 ГБ

В этой теме нет новых непрочитанных сообщений. Горные лыжи. Кубок мира 2013-14. Куршавель (Франция). Женщины [Eurosport HD, Спорт 1 HD] [17.12] (2013) DVB-S2 Remux

0 | 2

22.51 ГБ

В этой теме нет новых непрочитанных сообщений. Горные лыжи. Кубок мира 2012-13. Кортина-д’Ампеццо (Италия). Женщины. Супер Гигант [20.01] (2013) IPTVRip

0 | 2

621.78 МБ

В этой теме нет новых непрочитанных сообщений. Горные лыжи. Кубок мира 2013-14. Val d'Isere (Франция). Мужчины [Eurosport HD, Спорт 1 HD] [14.12] (2013) DVB-S2 Remux

0 | 3

29.03 ГБ

В этой теме нет новых непрочитанных сообщений. Горные лыжи. Кубок мира 2013-14. Val d'Isere (Франция). Женщины [Eurosport 2 HD] [19.12] (2013) DVB-S2 Remux

0 | 2

18.7 ГБ

В этой теме нет новых непрочитанных сообщений. Горные лыжи. Кубок Мира 2012/2013. Лейк-Луис. Женщины. Супер-Гигант (2012) IPTV

2 | 2

1.67 ГБ




Вы не можете начинать темы
Вы не можете отвечать на сообщения
Вы не можете редактировать свои сообщения
Вы не можете удалять свои сообщения
Вы не можете добавлять вложения

Перейти:  
Для Мосгорсуда, Роскомнадзора и рекламодателей: mosgorsud-torrent[собачка]yandex.ru
 Вход
ppkBB3cker v.2 © 2008-2014 @ PPK
[ Time : 0.036s | 16 Queries | GZIP : Off ]

Торрент трекер RUTOR.IN, Не можете зайти на rutor.org? Какой новый адрес рутор? Какое зеркало рутор? Не работает rutor.org и зеркала? Тогда наш торрент специально для вас. Rutor.in неофициальное зеркало rutor. В случае если у Вас заблокирован rutor или вдруг Вы не можете на него зайти, то Вы без труда сможете скачать бесплатно и без рекламы последние новинки кино, игр, сериалов и прочего у нас, на Rutor.in. Не нужно использовать прокси, чтобы зайти на рутор, достаточно воспользоваться нашим ресурсом. Все новые фильмы, игры, сериалы, книги и музыка за 2013 и 2014 годы через торрент бесплатно. Скачивайте фильмы в хорошем качестве, игры для пк, xbox, playstation без регистрации. У нас вы найдете новые Зарубежные сериалы и Русские сериалы 2013, 2014, 2015 годов. Оставайтесь с нами, качайте любимые фильмы, игры, сериалы, книги и музыку.