img image001 image001 image001 image001 image001 image001 image001 image001 image001 image001 image001 image001 image001 image001 image001

Planets Sun Sun Sun
Статистика раздачи
Автор: Снежана | Размер: 22.51 ГБ | Добавлен: 18 дек 2013
Раздают: 0    Качают: 2
Скачать торрент
Скачать торрент
Описание торрента

СообщениеДобавлено: 18 дек 2013 

Горные лыжи. Кубок мира 2013-14. Куршавель (Франция). Женщины

Вид спорта: Горные лыжи
Дата/Год выпуска: 17.12.13
Язык комментариев: русский, английский

Автор записи: SashaR.

Качество: DVB-S2 Remux
Формат видео: TS
Видео: AVC, 1920x1080, 16:9, 13.8 Mbps, 25 fps
Аудио: MP2, 192 kbps, 48 kHz, 2 channels
Горные лыжи. Кубок мира 2013-14. Куршавель (Франция). Женщины
Слалом. 1-я попытка (Eurosport HD).ts 3.90 GB (4197409260)
Слалом. 1-я попытка (HD Спорт).ts 4.79 GB (5150313392)
Слалом. 2-я попытка (Eurosport HD).ts 3.28 GB (3529818816)
Слалом. 2-я попытка (HD Спорт).ts 4.97 GB (5336654856)
Слалом. 2-я попытка (ORF 1 HD).ts 5.54 GB (5957136636)

G:Горные лыжи. Кубок мира 2013-14. Куршавель (Франция). ЖенщиныСлалом. 1-я попытка (HD Спорт).ts
General #6
ID : 6 (0x6)
Complete name : G:Горные лыжи. Кубок мира 2013-14. Куршавель (Франция). ЖенщиныСлалом. 1-я попытка (HD Спорт).ts
Format : MPEG-TS
File size : 4.80 GiB
Duration : 45mn 43s
Overall bit rate mode : Variable
Overall bit rate : 15.0 Mbps
Video #322
ID : 322 (0x142)
Menu ID : 12102 (0x2F46)
Format : AVC
Format/Info : Advanced Video Codec
Format profile : High@L4.0
Format settings, CABAC : Yes
Format settings, ReFrames : 3 frames
Codec ID : 27
Duration : 45mn 42s
Bit rate : 13.8 Mbps
Width : 1 920 pixels
Height : 1 080 pixels
Display aspect ratio : 16:9
Frame rate : 25.000 fps
Standard : Component
Color space : YUV
Chroma subsampling : 4:2:0
Bit depth : 8 bits
Scan type : Interlaced
Scan order : Top Field First
Bits/(Pixel*Frame) : 0.267
Stream size : 4.41 GiB (92%)
Color primaries : BT.709
Transfer characteristics : BT.709
Matrix coefficients : BT.709
Audio #402
ID : 402 (0x192)
Menu ID : 12102 (0x2F46)
Format : AC-3
Format/Info : Audio Coding 3
Mode extension : CM (complete main)
Format settings, Endianness : Big
Codec ID : 6
Duration : 45mn 43s
Bit rate mode : Constant
Bit rate : 448 Kbps
Channel count : 2 channels
Channel positions : Front: L R
Sampling rate : 48.0 KHz
Bit depth : 16 bits
Compression mode : Lossy
Delay relative to video : 172ms
Stream size : 147 MiB (3%)
Language : Russian
Language, more info : Clean effects

Слалом. 1-я попытка (Eurosport HD) - 00:52:48
Слалом. 1-я попытка (HD Спорт) - 00:45:43
Слалом. 2-я попытка (Eurosport HD) - 00:48:38
Слалом. 2-я попытка (HD Спорт) - 00:55:27
Слалом. 2-я попытка (ORF 1 HD) - 01:09:51








   Похожие торренты   Торрент   Размер 
В этой теме нет новых непрочитанных сообщений. Горные лыжи. Кубок мира 2013-14. Куршавель (Франция). Женщины. Слалом [Eurosport] [17.12] (2013) IPTV

15 | 11

1.17 ГБ

В этой теме нет новых непрочитанных сообщений. Горные лыжи. Кубок мира 2013-14. Val d'Isere (Франция). Мужчины [Eurosport HD, Спорт 1 HD] [14.12] (2013) DVB-S2 Remux

0 | 3

29.03 ГБ

В этой теме нет новых непрочитанных сообщений. Горные лыжи. Кубок мира 2013-14. Val d'Isere (Франция). Женщины [Eurosport 2 HD] [19.12] (2013) DVB-S2 Remux

0 | 2

18.7 ГБ

В этой теме нет новых непрочитанных сообщений. Горные лыжи. Кубок мира 2013-14. Сент-Моритц (Швейцария). Супер-гигант. Женщины [Eurosport HD, Спорт 1 HD] [14-15.12] (2013) DVB-S2 Remux

0 | 2

33.42 ГБ

В этой теме нет новых непрочитанных сообщений. Горные лыжи. Кубок мира 2013-14. Сент-Моритц (Швейцария). Супер-гигант. Женщины [Спорт 1 HD] [14.12] (2013) DVB-S2 Remux

0 | 2

5.66 ГБ

В этой теме нет новых непрочитанных сообщений. Горные лыжи. Кубок мира 2013-14. Val Gardena - Gröden (ITA) [Eurosport 2 HD] [19.12] (2013) DVB-S2 Remux

0 | 2

35.41 ГБ

В этой теме нет новых непрочитанных сообщений. Горные лыжи. Кубок Мира 2012-13. Мерибель (Франция). Женщины. Суперкомбинация [24.02] (2013) IPTVRip

0 | 2

1.33 ГБ




Вы не можете начинать темы
Вы не можете отвечать на сообщения
Вы не можете редактировать свои сообщения
Вы не можете удалять свои сообщения
Вы не можете добавлять вложения

Перейти:  
Для Мосгорсуда, Роскомнадзора и рекламодателей: mosgorsud-torrent[собачка]yandex.ru
 Вход
ppkBB3cker v.2 © 2008-2014 @ PPK
[ Time : 0.020s | 14 Queries | GZIP : On ]

Торрент трекер RUTOR.IN, Не можете зайти на rutor.org? Какой новый адрес рутор? Какое зеркало рутор? Не работает rutor.org и зеркала? Тогда наш торрент специально для вас. Rutor.in неофициальное зеркало rutor. В случае если у Вас заблокирован rutor или вдруг Вы не можете на него зайти, то Вы без труда сможете скачать бесплатно и без рекламы последние новинки кино, игр, сериалов и прочего у нас, на Rutor.in. Не нужно использовать прокси, чтобы зайти на рутор, достаточно воспользоваться нашим ресурсом. Все новые фильмы, игры, сериалы, книги и музыка за 2013 и 2014 годы через торрент бесплатно. Скачивайте фильмы в хорошем качестве, игры для пк, xbox, playstation без регистрации. У нас вы найдете новые Зарубежные сериалы и Русские сериалы 2013, 2014, 2015 годов. Оставайтесь с нами, качайте любимые фильмы, игры, сериалы, книги и музыку.