img image001 image001 image001 image001 image001 image001 image001 image001 image001 image001 image001 image001 image001 image001 image001

Planets Sun Sun Sun
Статистика раздачи
Автор: PriZraK | Размер: 7.52 ГБ | Добавлен: 15 фев 2014
Раздают: 0    Качают: 2
Скачать торрент
Скачать торрент
Описание торрента

СообщениеДобавлено: 15 фев 2014 

UFC Fight Night 33 Hunt vs Bigfoot


Вид спорта: MMA
Участники: Бойуы MMA
Дата/Год выпуска: 06/12/2013
Язык комментариев: не требуется, Английский
Описание: MAIN CARD (FS1 - 12/6/13 - 9:00 pm EST)

Автор рипа/записи: Secludedly
Качество: HDTV
Формат видео: TS
Видео:AVC, 1280х720, 6705 Kbps
Аудио:AAC, stereo, 48.0 KHz, 128 Kbps
Format : MPEG-TS
File size : 7.52 GiB
Duration : 2h 29mn
Overall bit rate mode : Variable
Overall bit rate : 7 191 Kbps
Maximum Overall bit rate : 18.0 Mbps

Video
ID : 4113 (0x1011)
Menu ID : 1 (0x1)
Format : AVC
Format/Info : Advanced Video Codec
Format profile : Main@L4.0
Format settings, CABAC : Yes
Format settings, ReFrames : 4 frames
Codec ID : 27
Duration : 2h 29mn
Bit rate mode : Variable
Bit rate : 6 706 Kbps
Maximum bit rate : 20.0 Mbps
Width : 1 280 pixels
Height : 720 pixels
Display aspect ratio : 16:9
Frame rate : 59.940 fps
Color space : YUV
Chroma subsampling : 4:2:0
Bit depth : 8 bits
Scan type : Progressive
Bits/(Pixel*Frame) : 0.121
Stream size : 7.01 GiB (93%)
Color primaries : BT.709-5, BT.1361, IEC 61966-2-4, SMPTE RP177
Transfer characteristics : BT.709-5, BT.1361
Matrix coefficients : BT.709-5, BT.1361, IEC 61966-2-4 709, SMPTE RP177

Audio
ID : 4352 (0x1100)
Menu ID : 1 (0x1)
Format : AAC
Format/Info : Advanced Audio Codec
Format version : Version 2
Format profile : LC
Muxing mode : ADTS
Codec ID : 15
Duration : 2h 29mn
Bit rate mode : Constant / Variable / Variable
Bit rate : 128 Kbps
Minimum bit rate : 108 Kbps / 108 Kbps
Maximum bit rate : 154 Kbps / 154 Kbps
Channel(s) : 2 channels
Channel positions : Front: L R
Sampling rate : 48.0 KHz
Compression mode : Lossy
Delay relative to video : -20ms
Stream size : 137 MiB (2%)

Mark Hunt (9-8) vs. Antonio 'Bigfoot' Silva (18-5)

Takeya Mizugaki (18-7-2) vs. Nam Phan (18-11)

Mauricio 'Shogun' Rua (21-8) vs. James Te Huna (16-6)

Ryan Bader (15-4) vs. Anthony Perosh (14-7)

Pat Barry (8-6) vs. Soa Palelei (19-3)

Dylan Andrews (17-4) vs. Clint Hester (8-3)

Bethe Correia (6-0) vs. Julie Kedzie (16-12)

02:29:42





   Похожие торренты   Торрент   Размер 
В этой теме нет новых непрочитанных сообщений. Смешанные единоборства. UFC Fight Night 33 : Hunt vs Bigfoot [06.12] (2013) HDTVRip

6 | 3

2.8 ГБ

В этой теме нет новых непрочитанных сообщений. Смешанные единоборства. MMA. UFC Fight Night 61: Bigfoot vs. Mir (Full Event) [22.02] (2015) WEB-DL, HDTVRip

263 | 17

3 ГБ

В этой теме нет новых непрочитанных сообщений. Смешанные единоборства. MMA. UFC Fight Night 61: Bigfoot vs. Mir (Full Event) [22.02] (2015) WEB-DL, HDTV 720p

19 | 10

9.81 ГБ

В этой теме нет новых непрочитанных сообщений. Смешанные единоборства. MMA. UFC Fight Night 65: Miocic vs. Hunt (Full Event) [09.05] (2015) WEB-DL 720p, HDTVRip 720p

68 | 16

7.92 ГБ

В этой теме нет новых непрочитанных сообщений. Смешанные единоборства. MMA. UFC Fight Night 65: Miocic vs. Hunt (Full Event) [09.05] (2015) WEB-DL, HDTVRip

169 | 37

2.89 ГБ

В этой теме нет новых непрочитанных сообщений. Смешанные единоборства. UFC Fight Night 110. Lewis vs Hunt. Основные бои [Матч! ТВ HD] [11.06] (2017) HDTVRip

12 | 4

2.3 ГБ

В этой теме нет новых непрочитанных сообщений. Смешанные единоборства. UFC Fight Night 37 - UFC Fight Night: Kim vs. Hathaway (2014) HDTVRip 720p

43 | 13

2.34 ГБ




Вы не можете начинать темы
Вы не можете отвечать на сообщения
Вы не можете редактировать свои сообщения
Вы не можете удалять свои сообщения
Вы не можете добавлять вложения

Перейти:  
Для Мосгорсуда, Роскомнадзора и рекламодателей: mosgorsud-torrent[собачка]yandex.ru
 Вход
ppkBB3cker v.2 © 2008-2014 @ PPK
[ Time : 0.046s | 16 Queries | GZIP : Off ]

Торрент трекер RUTOR.IN, Не можете зайти на rutor.org? Какой новый адрес рутор? Какое зеркало рутор? Не работает rutor.org и зеркала? Тогда наш торрент специально для вас. Rutor.in неофициальное зеркало rutor. В случае если у Вас заблокирован rutor или вдруг Вы не можете на него зайти, то Вы без труда сможете скачать бесплатно и без рекламы последние новинки кино, игр, сериалов и прочего у нас, на Rutor.in. Не нужно использовать прокси, чтобы зайти на рутор, достаточно воспользоваться нашим ресурсом. Все новые фильмы, игры, сериалы, книги и музыка за 2013 и 2014 годы через торрент бесплатно. Скачивайте фильмы в хорошем качестве, игры для пк, xbox, playstation без регистрации. У нас вы найдете новые Зарубежные сериалы и Русские сериалы 2013, 2014, 2015 годов. Оставайтесь с нами, качайте любимые фильмы, игры, сериалы, книги и музыку.
cron