img image001 image001 image001 image001 image001 image001 image001 image001 image001 image001 image001 image001 image001 image001 image001

Planets Sun Sun Sun
Статистика раздачи
Автор: PriZraK | Размер: 35.41 ГБ | Добавлен: 15 фев 2014
Раздают: 0    Качают: 2
Скачать торрент
Скачать торрент
Описание торрента

СообщениеДобавлено: 15 фев 2014 

Горные лыжи. Кубок мира 2013-14. Val Gardena - Gröden (ITA). Eurosport 2 HD

Вид спорта: Горные лыжи
Дата/Год выпуска: 19.12.13
Язык комментариев: русский, английский

Автор записи: SashaR.

Качество: DVB-S2 Remux
Формат видео: TS
Видео: AVC, 1920x1080, 16:9, 11.7 Mbps, 25 fps
Аудио: MP2, 192 kbps, 48 kHz, 2 channels

Горные лыжи. Кубок мира 2013-14. Val Gardena - Gröden (ITA). Мужчины
2-я тренировка.ts 5.34 GB (5740421328)
Super G (HD Спорт).ts 6.42 GB (6896964428)
Super G.ts 5.64 GB (6066346024)
Скоростной спуск (Eurosport HD).ts 5.25 GB (5645565928)
Скоростной спуск (HD Спорт).ts 6.55 GB (7038152428)
Скоростной спуск (ORF 1 HD).ts 6.17 GB (6628661168)



G:205B81~12-я тренировка.ts
General #6
ID : 6 (0x6)
Complete name : G:205B81~12-я тренировка.ts
Format : MPEG-TS
File size : 5.35 GiB
Duration : 58mn 18s
Overall bit rate mode : Variable
Overall bit rate : 13.1 Mbps
Video #538
ID : 538 (0x21A)
Menu ID : 1 (0x1)
Format : AVC
Format/Info : Advanced Video Codec
Format profile : High@L4.0
Format settings, CABAC : Yes
Format settings, ReFrames : 4 frames
Format settings, GOP : M=8, N=24
Codec ID : 27
Duration : 58mn 17s
Bit rate : 11.7 Mbps
Width : 1 920 pixels
Height : 1 080 pixels
Display aspect ratio : 16:9
Frame rate : 25.000 fps
Color space : YUV
Chroma subsampling : 4:2:0
Bit depth : 8 bits
Scan type : MBAFF
Scan order : Top Field First
Bits/(Pixel*Frame) : 0.226
Stream size : 4.76 GiB (89%)
Language : English
Color primaries : BT.709
Transfer characteristics : BT.709
Matrix coefficients : BT.709
Audio #638
ID : 638 (0x27E)
Menu ID : 1 (0x1)
Format : MPEG Audio
Format version : Version 1
Format profile : Layer 2
Codec ID : 4
Duration : 58mn 18s
Bit rate mode : Constant
Bit rate : 192 Kbps
Channel count : 2 channels
Sampling rate : 48.0 KHz
Compression mode : Lossy
Delay relative to video : 68ms
Stream size : 80.1 MiB (1%)
Language : German
Audio #738
ID : 738 (0x2E2)
Menu ID : 1 (0x1)
Format : MPEG Audio
Format version : Version 1
Format profile : Layer 2
Codec ID : 4
Duration : 58mn 18s
Bit rate mode : Constant
Bit rate : 192 Kbps
Channel count : 2 channels
Sampling rate : 48.0 KHz
Compression mode : Lossy
Delay relative to video : 92ms
Stream size : 80.1 MiB (1%)
Language : German
Audio #5386
ID : 5386 (0x150A)
Menu ID : 1 (0x1)
Format : MPEG Audio
Format version : Version 1
Format profile : Layer 2
Codec ID : 4
Duration : 58mn 18s
Bit rate mode : Constant
Bit rate : 192 Kbps
Channel count : 2 channels
Sampling rate : 48.0 KHz
Compression mode : Lossy
Delay relative to video : 11ms
Stream size : 80.1 MiB (1%)
Language : German
Audio #5391
ID : 5391 (0x150F)
Menu ID : 1 (0x1)
Format : MPEG Audio
Format version : Version 1
Format profile : Layer 2
Codec ID : 4
Duration : 58mn 18s
Bit rate mode : Constant
Bit rate : 192 Kbps
Channel count : 2 channels
Sampling rate : 48.0 KHz
Compression mode : Lossy
Delay relative to video : 4ms
Stream size : 80.1 MiB (1%)
Language : German

2-я тренировка - 00:58:18
Super G - 01:34:59






   Похожие торренты   Торрент   Размер 
В этой теме нет новых непрочитанных сообщений. Горные лыжи. Кубок мира 2013-14. Val Gardena - Gröden (ITA). Мужчины. Скоростной спуск [Спорт HD] [21.12] (2013) HDTV 1080i

0 | 2

6.55 ГБ

В этой теме нет новых непрочитанных сообщений. Горные лыжи. Кубок мира 2013-14. Val d'Isere (Франция). Женщины [Eurosport 2 HD] [19.12] (2013) DVB-S2 Remux

0 | 2

18.7 ГБ

В этой теме нет новых непрочитанных сообщений. Горные лыжи. Кубок мира 2013-14. Val d'Isere (Франция). Мужчины [Eurosport HD, Спорт 1 HD] [14.12] (2013) DVB-S2 Remux

0 | 3

29.03 ГБ

В этой теме нет новых непрочитанных сообщений. Горные лыжи. Кубок мира 2013-14. Куршавель (Франция). Женщины [Eurosport HD, Спорт 1 HD] [17.12] (2013) DVB-S2 Remux

0 | 2

22.51 ГБ

В этой теме нет новых непрочитанных сообщений. Горные лыжи. Кубок мира 2013-14. Сент-Моритц (Швейцария). Супер-гигант. Женщины [Eurosport HD, Спорт 1 HD] [14-15.12] (2013) DVB-S2 Remux

0 | 2

33.42 ГБ

В этой теме нет новых непрочитанных сообщений. Горные лыжи. Кубок мира 2012-2013. Val Gardena (ITA). Мужчины. Скоростной спуск (2012) IPTV

0 | 2

1.66 ГБ

В этой теме нет новых непрочитанных сообщений. Горные лыжи. Кубок мира 2012-2013. Val Gardena (ITA). Мужчины. Скоростной спуск. Тренировка (2012) IPTV

0 | 2

1.56 ГБ




Вы не можете начинать темы
Вы не можете отвечать на сообщения
Вы не можете редактировать свои сообщения
Вы не можете удалять свои сообщения
Вы не можете добавлять вложения

Перейти:  
Для Мосгорсуда, Роскомнадзора и рекламодателей: mosgorsud-torrent[собачка]yandex.ru
 Вход
ppkBB3cker v.2 © 2008-2014 @ PPK
[ Time : 0.092s | 14 Queries | GZIP : Off ]

Торрент трекер RUTOR.IN, Не можете зайти на rutor.org? Какой новый адрес рутор? Какое зеркало рутор? Не работает rutor.org и зеркала? Тогда наш торрент специально для вас. Rutor.in неофициальное зеркало rutor. В случае если у Вас заблокирован rutor или вдруг Вы не можете на него зайти, то Вы без труда сможете скачать бесплатно и без рекламы последние новинки кино, игр, сериалов и прочего у нас, на Rutor.in. Не нужно использовать прокси, чтобы зайти на рутор, достаточно воспользоваться нашим ресурсом. Все новые фильмы, игры, сериалы, книги и музыка за 2013 и 2014 годы через торрент бесплатно. Скачивайте фильмы в хорошем качестве, игры для пк, xbox, playstation без регистрации. У нас вы найдете новые Зарубежные сериалы и Русские сериалы 2013, 2014, 2015 годов. Оставайтесь с нами, качайте любимые фильмы, игры, сериалы, книги и музыку.