img image001 image001 image001 image001 image001 image001 image001 image001 image001 image001 image001 image001 image001 image001 image001

Planets Sun Sun Sun
Статистика раздачи
Автор: PriZraK | Размер: 4.02 ГБ | Добавлен: 15 фев 2014
Раздают: 0    Качают: 2
Скачать торрент
Скачать торрент
Описание торрента

СообщениеДобавлено: 15 фев 2014 

European Rally Championship (ERC) / Round 1 / International Jännerrallye (Austria)



Вид спорта: Ралли
Дата/Год выпуска: 04.01.14
Язык комментариев: русский, английский

Автор записи: SashaR.

Качество: DVB-S2 Remux
Формат видео: TS
Видео: AVC, 1920x1080, 16:9, 7 799 Kbps, 25 fps
Аудио: MP2, 192 Kbps, 48.0 kHz, 2 channels
Аудио: MP2, 192 Kbps, 48.0 kHz, 2 channels
G:European Rally Championship (ERC). Round 1. International Jannerrallye (Austria)EUROPE~1.TS
General #6
ID : 6 (0x6)
Complete name : G:European Rally Championship (ERC). Round 1. International Jannerrallye (Austria)EUROPE~1.TS
Format : MPEG-TS
File size : 1.69 GiB
Duration : 28mn 8s
Overall bit rate mode : Variable
Overall bit rate : 8 613 Kbps
Video #324
ID : 324 (0x144)
Menu ID : 12104 (0x2F48)
Format : AVC
Format/Info : Advanced Video Codec
Format profile : High@L4.0
Format settings, CABAC : Yes
Format settings, ReFrames : 3 frames
Codec ID : 27
Duration : 28mn 8s
Bit rate : 7 799 Kbps
Width : 1 920 pixels
Height : 1 080 pixels
Display aspect ratio : 16:9
Frame rate : 25.000 fps
Standard : Component
Color space : YUV
Chroma subsampling : 4:2:0
Bit depth : 8 bits
Scan type : Interlaced
Scan order : Top Field First
Bits/(Pixel*Frame) : 0.150
Stream size : 1.53 GiB (91%)
Color primaries : BT.709
Transfer characteristics : BT.709
Matrix coefficients : BT.709
Audio #404
ID : 404 (0x194)
Menu ID : 12104 (0x2F48)
Format : MPEG Audio
Format version : Version 1
Format profile : Layer 2
Codec ID : 4
Duration : 28mn 8s
Bit rate mode : Constant
Bit rate : 192 Kbps
Channel count : 2 channels
Sampling rate : 48.0 KHz
Compression mode : Lossy
Delay relative to video : 445ms
Stream size : 38.6 MiB (2%)
Language : Russian
Language, more info : Clean effects
Audio #424
ID : 424 (0x1A8)
Menu ID : 12104 (0x2F48)
Format : MPEG Audio
Format version : Version 1
Format profile : Layer 2
Codec ID : 4
Duration : 28mn 8s
Bit rate mode : Constant
Bit rate : 192 Kbps
Channel count : 2 channels
Sampling rate : 48.0 KHz
Compression mode : Lossy
Delay relative to video : 421ms
Stream size : 38.6 MiB (2%)
Language : English
Language, more info : Clean effects

Day 1 - 00:28:08





   Похожие торренты   Торрент   Размер 
В этой теме нет новых непрочитанных сообщений. Автоспорт. ERC. European Rally Championship. Round 01. International Jännerrallye (Austria). Day 1, 2 Review; INSIDE (2012) HDTV 1080i

0 | 2

2.42 ГБ

В этой теме нет новых непрочитанных сообщений. Автоспорт. ERC. European Rally Championship. Round 03. Rally Islas Canarias (Spain). Day 1, 2 Review, Inside (2013) IPTV

2 | 2

3.24 ГБ

В этой теме нет новых непрочитанных сообщений. Автоспорт. ERC. European Rally Championship. Round 02. Rally Liepāja-Ventspils (Latvia). Day 1, 2 Review (2013) HDTV 1080i

0 | 1

1.6 ГБ

В этой теме нет новых непрочитанных сообщений. Автоспорт. European Rally Championship (ERC) 2015. Этап 01-02. Internationale Jännerrallye (Австрия) (2015) HDTV 1080i

11 | 10

5.38 ГБ

В этой теме нет новых непрочитанных сообщений. Автоспорт. European Rally Championship (ERC) 2015. Этап 01-02. Internationale Jännerrallye (Австрия) (2015) HDTV 1080i

10 | 7

4.47 ГБ

В этой теме нет новых непрочитанных сообщений. Автоспорт. European Rally Championship (ERC) / Round 4. SATA Rallye Açores (Portugal). Day 1 - SS8, 12; Day 2 - SS19 (2013) HDTV 1080i

0 | 2

2.44 ГБ

В этой теме нет новых непрочитанных сообщений. Автоспорт. European Rally Championship (ERC). Round 5. Giru di Corsica-Tour de Corse (France). Day 1 - SS2, 6; Day 2 - S (2013) HDTV 1080i

0 | 6

3.55 ГБ




Вы не можете начинать темы
Вы не можете отвечать на сообщения
Вы не можете редактировать свои сообщения
Вы не можете удалять свои сообщения
Вы не можете добавлять вложения

Перейти:  
Для Мосгорсуда, Роскомнадзора и рекламодателей: mosgorsud-torrent[собачка]yandex.ru
 Вход
ppkBB3cker v.2 © 2008-2014 @ PPK
[ Time : 0.051s | 15 Queries | GZIP : Off ]

Торрент трекер RUTOR.IN, Не можете зайти на rutor.org? Какой новый адрес рутор? Какое зеркало рутор? Не работает rutor.org и зеркала? Тогда наш торрент специально для вас. Rutor.in неофициальное зеркало rutor. В случае если у Вас заблокирован rutor или вдруг Вы не можете на него зайти, то Вы без труда сможете скачать бесплатно и без рекламы последние новинки кино, игр, сериалов и прочего у нас, на Rutor.in. Не нужно использовать прокси, чтобы зайти на рутор, достаточно воспользоваться нашим ресурсом. Все новые фильмы, игры, сериалы, книги и музыка за 2013 и 2014 годы через торрент бесплатно. Скачивайте фильмы в хорошем качестве, игры для пк, xbox, playstation без регистрации. У нас вы найдете новые Зарубежные сериалы и Русские сериалы 2013, 2014, 2015 годов. Оставайтесь с нами, качайте любимые фильмы, игры, сериалы, книги и музыку.