img image001 image001 image001 image001 image001 image001 image001 image001 image001 image001 image001 image001 image001 image001 image001

Planets Sun Sun Sun
Статистика раздачи
Автор: PriZraK | Размер: 8.39 ГБ | Добавлен: 15 фев 2014
Раздают: 0    Качают: 1
Скачать торрент
Скачать торрент
Описание торрента

СообщениеДобавлено: 15 фев 2014 

Кубок Мира 2013-14. 5-й этап. Рупольдинг (Германия)

Индивидуальная гонка 15 км. Женщины

Вид спорта: Биатлон
Комментарий: русский (Дмитрий Губерниев)
Описание: КМ-2014. Этап 5 (Рупольдинг, Германия)
Женщины. Индивидуальная гонка 15 км
10 января 2014 года, пятница. 17:15 мск

Автор записи: Striker



Качество: HDTV
Формат: TS
Видео: 1920x1080i, H.264, 25 fps, ~ 10800kbps
Аудио: MP2, 48 kHz, 2 ch, ~192.00 kbps
Format : MPEG-TS
File size : 8.39 GiB
Duration : 1h 43mn
Overall bit rate mode : Variable
Overall bit rate : 11.6 Mbps

Video
ID : 303 (0x12F)
Menu ID : 1 (0x1)
Format : AVC
Format/Info : Advanced Video Codec
Format profile : High@L4.0
Format settings, CABAC : Yes
Format settings, ReFrames : 3 frames
Codec ID : 27
Duration : 1h 43mn
Bit rate : 10.8 Mbps
Width : 1 920 pixels
Height : 1 080 pixels
Display aspect ratio : 16:9
Frame rate : 25.000 fps
Standard : Component
Color space : YUV
Chroma subsampling : 4:2:0
Bit depth : 8 bits
Scan type : Interlaced
Scan order : Top Field First
Bits/(Pixel*Frame) : 0.209
Stream size : 7.83 GiB (93%)
Color primaries : BT.709
Transfer characteristics : BT.709
Matrix coefficients : BT.709

Audio
ID : 403 (0x193)
Menu ID : 1 (0x1)
Format : MPEG Audio
Format version : Version 1
Format profile : Layer 2
Codec ID : 3
Duration : 1h 43mn
Bit rate mode : Constant
Bit rate : 192 Kbps
Channel count : 2 channels
Sampling rate : 48.0 KHz
Compression mode : Lossy
Stream size : 142 MiB (2%)
Language : Russian

01:43:31









   Похожие торренты   Торрент   Размер 
В этой теме нет новых непрочитанных сообщений. Биатлон. Кубок мира 2013/14. 5 этап. Индивидуальная гонка. Мужчины. Рупольдинг (Германия) [Спорт 1 HD] [11.01] (2014) HDTV 1080i от MediaClub

0 | 1

10.71 ГБ

В этой теме нет новых непрочитанных сообщений. Биатлон. Кубок мира 2013/14. 5 этап. Индивидуальная гонка 15 км. Женщины. Рупольдинг (Германия) [Спорт 1 HD] [10.01] (2014) HDTVRip

0 | 1

1.26 ГБ

В этой теме нет новых непрочитанных сообщений. Биатлон. Кубок Мира 2015-16. 5-й этап. Рупольдинг (Германия). Женщины. Индивидуальная гонка 15 км [14.01] (2016) HDTV 1080i

29 | 7

5.21 ГБ

В этой теме нет новых непрочитанных сообщений. Биатлон. Кубок мира 2013/14. 5 этап. Гонка преследования. Женщины. Рупольдинг (Германия) [Спорт 1 HD] [12.01] (2014) HDTV 1080i от MediaClub

0 | 1

4.82 ГБ

В этой теме нет новых непрочитанных сообщений. Биатлон. Кубок мира 2013/14. 5 этап. Индивидуальная гонка 15 км. Женщины. Рупольдинг (Германия) [Россия 2 ] [10.01] (2014) SATRip

2 | 1

1.04 ГБ

В этой теме нет новых непрочитанных сообщений. Биатлон. Кубок мира 2013/14. 5 этап. Эстафета. Женщины. Рупольдинг (Германия) [Спорт 1 HD] [08.01] (2014) HDTV 1080i от MediaClub

0 | 1

10.08 ГБ

В этой теме нет новых непрочитанных сообщений. Биатлон. Кубок Мира 2015-16. 5-й этап. Рупольдинг (Германия). Мужчины. Индивидуальная гонка 20 км [13.01] (2016) HDTV 1080i

31 | 7

8.19 ГБ




Вы не можете начинать темы
Вы не можете отвечать на сообщения
Вы не можете редактировать свои сообщения
Вы не можете удалять свои сообщения
Вы не можете добавлять вложения

Перейти:  
Для Мосгорсуда, Роскомнадзора и рекламодателей: mosgorsud-torrent[собачка]yandex.ru
 Вход
ppkBB3cker v.2 © 2008-2014 @ PPK
[ Time : 0.022s | 15 Queries | GZIP : Off ]

Торрент трекер RUTOR.IN, Не можете зайти на rutor.org? Какой новый адрес рутор? Какое зеркало рутор? Не работает rutor.org и зеркала? Тогда наш торрент специально для вас. Rutor.in неофициальное зеркало rutor. В случае если у Вас заблокирован rutor или вдруг Вы не можете на него зайти, то Вы без труда сможете скачать бесплатно и без рекламы последние новинки кино, игр, сериалов и прочего у нас, на Rutor.in. Не нужно использовать прокси, чтобы зайти на рутор, достаточно воспользоваться нашим ресурсом. Все новые фильмы, игры, сериалы, книги и музыка за 2013 и 2014 годы через торрент бесплатно. Скачивайте фильмы в хорошем качестве, игры для пк, xbox, playstation без регистрации. У нас вы найдете новые Зарубежные сериалы и Русские сериалы 2013, 2014, 2015 годов. Оставайтесь с нами, качайте любимые фильмы, игры, сериалы, книги и музыку.