img image001 image001 image001 image001 image001 image001 image001 image001 image001 image001 image001 image001 image001 image001 image001

Planets Sun Sun Sun
Статистика раздачи
Автор: PriZraK | Размер: 1.04 ГБ | Добавлен: 15 фев 2014
Раздают: 2    Качают: 1
Скачать торрент
Скачать торрент
Описание торрента

СообщениеДобавлено: 15 фев 2014 

Кубок Мира 2013-14. 5-й этап. Рупольдинг (Германия). Индивидуальная гонка 15 км. Женщины
Вид спорта: Биатлон
Комментарий: Профессиональный
Язык комментариев: Русский (Дмитрий Губерниев)
Описание: Женская индивидуальная гонка 15 км на пятом этапе кубка мира 2013/14 в немецком Рупольдинге.
Автор рипа: sanchez2011
Качество: SATRip
Формат: AVI
Видео кодек: XviD
Аудио кодек: MP3
Видео: MPEG-4 Visual (H263) 720x448 (16:10) 25.00fps 1500kbps
Аудио: MPEG Audio Layer 3 48000Hz stereo 128kbps

Результаты

Продолжительность: 01:30:32


General
Complete name : C:UsersadminDesktopКубок Мира 2013-14. 5-й этап. Рупольдинг (Германия). Индивидуальная гонка 15 км. Женщины.avi
Format : AVI
Format/Info : Audio Video Interleave
Format profile : OpenDML
File size : 1.04 GiB
Duration : 1h 30mn
Overall bit rate : 1 646 Kbps
Writing application : XviD4PSP 6.0 / 53.6.0

Video
ID : 0
Format : MPEG-4 Visual
Format profile : Advanced Simple@L5
Format settings, BVOP : 1
Format settings, QPel : No
Format settings, GMC : No warppoints
Format settings, Matrix : Default (H.263)
Codec ID : XVID
Codec ID/Hint : XviD
Duration : 1h 30mn
Bit rate : 1 501 Kbps
Width : 720 pixels
Height : 448 pixels
Display aspect ratio : 1.574
Frame rate : 25.000 fps
Color space : YUV
Chroma subsampling : 4:2:0
Bit depth : 8 bits
Scan type : Progressive
Compression mode : Lossy
Bits/(Pixel*Frame) : 0.186
Stream size : 972 MiB (91%)
Writing library : XviD 64

Audio
ID : 1
Format : MPEG Audio
Format version : Version 1
Format profile : Layer 3
Mode : Joint stereo
Mode extension : MS Stereo
Codec ID : 55
Codec ID/Hint : MP3
Duration : 1h 30mn
Bit rate mode : Constant
Bit rate : 128 Kbps
Channel(s) : 2 channels
Sampling rate : 48.0 KHz
Compression mode : Lossy
Stream size : 82.9 MiB (8%)
Alignment : Aligned on interleaves
Interleave, duration : 24 ms (0.60 video frame)
Writing library : LAME3.98.2



   Похожие торренты   Торрент   Размер 
В этой теме нет новых непрочитанных сообщений. Биатлон. Кубок мира 2013/14. 5 этап. Индивидуальная гонка. Мужчины. Рупольдинг (Германия) [Россия 2] [11.01] (2014) SATRip от MediaClub

1 | 1

1.29 ГБ

В этой теме нет новых непрочитанных сообщений. Биатлон. Кубок мира 2013/14. 5 этап. Индивидуальная гонка 15 км. Женщины. Рупольдинг (Германия) [Спорт 1 HD] [10.01] (2014) HDTVRip

0 | 1

1.26 ГБ

В этой теме нет новых непрочитанных сообщений. Биатлон. Кубок мира 2013/14. 5 этап. Индивидуальная гонка 15 км. Женщины. Рупольдинг (Германия) [Спорт 1 HD] [10.01] (2014) HDTV 1080i

0 | 1

8.39 ГБ

В этой теме нет новых непрочитанных сообщений. Биатлон. Кубок мира 2013/14. 5 этап. Гонка преследования. Женщины. Рупольдинг (Германия) [Россия 2] [12.01] (2014) SATRip от MediaClub

1 | 1

571.14 МБ

В этой теме нет новых непрочитанных сообщений. Биатлон. Кубок Мира 2015-16. 5-й этап. Рупольдинг (Германия). Женщины. Индивидуальная гонка 15 км [14.01] (2016) HDTVRip

45 | 10

1.02 ГБ

В этой теме нет новых непрочитанных сообщений. Биатлон. Кубок Мира 2015-16. 5-й этап. Рупольдинг (Германия). Женщины. Индивидуальная гонка 15 км [14.01] (2016) HDTVRip-AVC

52 | 4

1.18 ГБ

В этой теме нет новых непрочитанных сообщений. Биатлон. Кубок Мира 2015-16. 5-й этап. Рупольдинг (Германия). Женщины. Индивидуальная гонка 15 км [14.01] (2016) HDTVRip 720p | 50 fps

40 | 8

2.41 ГБ




Вы не можете начинать темы
Вы не можете отвечать на сообщения
Вы не можете редактировать свои сообщения
Вы не можете удалять свои сообщения
Вы не можете добавлять вложения

Перейти:  
Для Мосгорсуда, Роскомнадзора и рекламодателей: mosgorsud-torrent[собачка]yandex.ru
 Вход
ppkBB3cker v.2 © 2008-2014 @ PPK
[ Time : 0.029s | 15 Queries | GZIP : Off ]

Торрент трекер RUTOR.IN, Не можете зайти на rutor.org? Какой новый адрес рутор? Какое зеркало рутор? Не работает rutor.org и зеркала? Тогда наш торрент специально для вас. Rutor.in неофициальное зеркало rutor. В случае если у Вас заблокирован rutor или вдруг Вы не можете на него зайти, то Вы без труда сможете скачать бесплатно и без рекламы последние новинки кино, игр, сериалов и прочего у нас, на Rutor.in. Не нужно использовать прокси, чтобы зайти на рутор, достаточно воспользоваться нашим ресурсом. Все новые фильмы, игры, сериалы, книги и музыка за 2013 и 2014 годы через торрент бесплатно. Скачивайте фильмы в хорошем качестве, игры для пк, xbox, playstation без регистрации. У нас вы найдете новые Зарубежные сериалы и Русские сериалы 2013, 2014, 2015 годов. Оставайтесь с нами, качайте любимые фильмы, игры, сериалы, книги и музыку.