img image001 image001 image001 image001 image001 image001 image001 image001 image001 image001 image001 image001 image001 image001 image001

Planets Sun Sun Sun
Статистика раздачи
Автор: PriZraK | Размер: 1.34 ГБ | Добавлен: 15 фев 2014
Раздают: 0    Качают: 1
Скачать торрент
Скачать торрент
Описание торрента

СообщениеДобавлено: 15 фев 2014 

[imgright]http://i57.fastpic.ru/big/2014/0117/a4/c193e9e66141ceb2d37b0677f6ca6ba4.png" style="float:right;" />
Кубок Мира 2013-14. 6-й этап. Антхольц-Антерсельва (Италия)
Эстафета 4x6 км. Женщины

Вид спорта: Биатлон
Комментарий: русский (Дмитрий Губерниев)
Описание: КМ-2014. Этап 6. Антхольц-Антерсельва (Италия)
Женщины. Эстафета 4x6 км
19 января 2014 года, воскресенье. 14:15 мск

Автор записи/рипа: Striker

Гонка остановлена из-за тумана на второй стрельбе второго этапа.

Качество: HDTVRip
Формат: MKV
Видео кодек: H.264
Аудио кодек: AC3
Видео: 1280x720 (16:9), 50 fps, ~4000 Kbps
Аудио: 48 kHz, 2 channels, 192 Kbps
Format : Matroska
Format version : Version 2
File size : 1.34 GiB
Duration : 45mn 58s
Overall bit rate : 4 162 Kbps
Writing application : Lavf52.64.2
Writing library : Lavf52.64.2

Video
ID : 1
Format : AVC
Format/Info : Advanced Video Codec
Format profile : High@L3.2
Format settings, CABAC : Yes
Format settings, ReFrames : 3 frames
Codec ID : V_MPEG4/ISO/AVC
Duration : 45mn 58s
Bit rate : 3 887 Kbps
Width : 1 280 pixels
Height : 720 pixels
Display aspect ratio : 16:9
Frame rate mode : Constant
Frame rate : 50.000 fps
Color space : YUV
Chroma subsampling : 4:2:0
Bit depth : 8 bits
Scan type : Progressive
Bits/(Pixel*Frame) : 0.084
Stream size : 1.25 GiB (93%)
Default : Yes
Forced : No

Audio
ID : 2
Format : AC-3
Format/Info : Audio Coding 3
Mode extension : CM (complete main)
Format settings, Endianness : Big
Codec ID : A_AC3
Duration : 45mn 58s
Bit rate mode : Constant
Bit rate : 192 Kbps
Channel count : 2 channels
Channel positions : Front: L R
Sampling rate : 48.0 KHz
Bit depth : 16 bits
Compression mode : Lossy
Stream size : 63.1 MiB (5%)
Default : Yes
Forced : No

00:45:59


Гонка остановлена из-за тумана на второй стрельбе второго этапа.






   Похожие торренты   Торрент   Размер 
В этой теме нет новых непрочитанных сообщений. Биатлон. Кубок мира 2013/14. 6 этап. Эстафета 4x6 км. Женщины. Антерсельва (Италия) [Спорт 1 HD] [19.01] (2014) HDTVRip

1 | 1

580.93 МБ

В этой теме нет новых непрочитанных сообщений. Биатлон. Кубок мира 2013/14. 6 этап. Эстафета. Женщины. Антерсельва (Италия) [Спорт 1 HD] [19.01] (2014) HDTV 1080i от MediaClub

3 | 1

2.51 ГБ

В этой теме нет новых непрочитанных сообщений. Биатлон. Кубок Мира 2014-15. 6-й этап. Антхольц-Антерсельва (Италия). Женщины. Эстафета 4x6 км [25.01] (2015) HDTVRip 720p | 50 fps

13 | 2

2.7 ГБ

В этой теме нет новых непрочитанных сообщений. Биатлон. Кубок мира 2013/14. 6 этап. Спринт. Женщины. Антерсельва (Италия) [Спорт 1 HD] [16.01] (2014) HDTVRip

3 | 1

1.13 ГБ

В этой теме нет новых непрочитанных сообщений. Биатлон. Кубок Мира 2014-15. 6-й этап. Антхольц-Антерсельва (Италия). Женщины. Эстафета 4x6 км [25.01] (2015) HDTVRip

30 | 4

1.37 ГБ

В этой теме нет новых непрочитанных сообщений. Биатлон. Кубок Мира 2016-17. 6-й этап. Антхольц-Антерсельва (Италия). Женщины. Эстафета [22.01] (2017) HDTVRip 720p | 50 fps

53 | 7

2.65 ГБ

В этой теме нет новых непрочитанных сообщений. Биатлон. Кубок Мира 2015-16. 6-й этап. Антхольц-Антерсельва (Италия). Женщины. Эстафета 4x6 км [24.01] (2016) HDTVRip 720p | 50 fps

123 | 54

2.49 ГБ




Вы не можете начинать темы
Вы не можете отвечать на сообщения
Вы не можете редактировать свои сообщения
Вы не можете удалять свои сообщения
Вы не можете добавлять вложения

Перейти:  
Для Мосгорсуда, Роскомнадзора и рекламодателей: mosgorsud-torrent[собачка]yandex.ru
 Вход
ppkBB3cker v.2 © 2008-2014 @ PPK
[ Time : 0.076s | 14 Queries | GZIP : Off ]

Торрент трекер RUTOR.IN, Не можете зайти на rutor.org? Какой новый адрес рутор? Какое зеркало рутор? Не работает rutor.org и зеркала? Тогда наш торрент специально для вас. Rutor.in неофициальное зеркало rutor. В случае если у Вас заблокирован rutor или вдруг Вы не можете на него зайти, то Вы без труда сможете скачать бесплатно и без рекламы последние новинки кино, игр, сериалов и прочего у нас, на Rutor.in. Не нужно использовать прокси, чтобы зайти на рутор, достаточно воспользоваться нашим ресурсом. Все новые фильмы, игры, сериалы, книги и музыка за 2013 и 2014 годы через торрент бесплатно. Скачивайте фильмы в хорошем качестве, игры для пк, xbox, playstation без регистрации. У нас вы найдете новые Зарубежные сериалы и Русские сериалы 2013, 2014, 2015 годов. Оставайтесь с нами, качайте любимые фильмы, игры, сериалы, книги и музыку.