img image001 image001 image001 image001 image001 image001 image001 image001 image001 image001 image001 image001 image001 image001 image001

Planets Sun Sun Sun
Статистика раздачи
Автор: PriZraK | Размер: 10.8 ГБ | Добавлен: 15 фев 2014
Раздают: 0    Качают: 1
Скачать торрент
Скачать торрент
Описание торрента

СообщениеДобавлено: 15 фев 2014 


Вид спорта: Футбол
Год выпуска: 03.02.2014
Язык комментариев: Русский (Александр Елагин)
Участники: Манчестер Сити - Челси

Описание: Манчестер (Англия). Стадион Этихад - Сити оф Манчестер.
24-й тур 04 февраля 2014 года, вторник. 00:00 мск
Главный судья: Майк Дин (Хесволл, Уиррал, Англия)
Матч 1 (27.10.2013) - 1:2.

Автор рипа.записи: MrDrax

Качество: HDTV
Продолжительность: 01:44:23

Формат: TS
Видео кодек: H.264
Аудио кодек: MP2
Свойства видео: 1920x1080, 25,000 кадров/сек, 13.8 Mbps
Свойства аудио: 48,0 КГц, 2ch stereo, 192 Кбит/сек

0-1
Format : MPEG-TS
File size : 5.40 GiB
Duration : 52mn 23s
Overall bit rate mode : Variable
Overall bit rate : 14.8 Mbps

Video
ID : 325 (0x145)
Menu ID : 1 (0x1)
Format : AVC
Format/Info : Advanced Video Codec
Format profile : High@L4.0
Format settings, CABAC : Yes
Format settings, ReFrames : 3 frames
Codec ID : 27
Duration : 52mn 23s
Bit rate : 13.8 Mbps
Width : 1 920 pixels
Height : 1 080 pixels
Display aspect ratio : 16:9
Frame rate : 25.000 fps
Standard : Component
Color space : YUV
Chroma subsampling : 4:2:0
Bit depth : 8 bits
Scan type : Interlaced
Scan order : Top Field First
Bits/(Pixel*Frame) : 0.267
Stream size : 5.07 GiB (94%)
Color primaries : BT.709
Transfer characteristics : BT.709
Matrix coefficients : BT.709

Audio
ID : 405 (0x195)
Menu ID : 1 (0x1)
Format : MPEG Audio
Format version : Version 1
Format profile : Layer 2
Codec ID : 3
Duration : 52mn 23s
Bit rate mode : Constant
Bit rate : 192 Kbps
Channel count : 2 channels
Sampling rate : 48.0 KHz
Compression mode : Lossy
Delay relative to video : -40ms
Stream size : 72.0 MiB (1%)
Language : Russian



   Похожие торренты   Торрент   Размер 
В этой теме нет новых непрочитанных сообщений. Футбол. Чемпионат Англии 2012-13. 27-й тур. Манчестер Сити - Челси (2013) HDTV 1080i

0 | 1

10.67 ГБ

В этой теме нет новых непрочитанных сообщений. Футбол. Чемпионат Англии 2014-15. 23-й тур. Челси - Манчестер Сити [31.01] (2015) HDTV 1080i

10 | 2

8.51 ГБ

В этой теме нет новых непрочитанных сообщений. Футбол. Чемпионат Англии 2013-14. 9-й тур. Челси - Манчестер Сити [27.10] (2013) HDTV 1080i

0 | 1

9.69 ГБ

В этой теме нет новых непрочитанных сообщений. Футбол. Чемпионат Англии 2016-17. 31-й тур. Челси - Манчестер Сити [05.04] (2017) HDTV 1080i

0 | 0

7.52 ГБ

В этой теме нет новых непрочитанных сообщений. Футбол. Чемпионат Англии 2015-16. (2-й тур) Манчестер Сити(Манчестер) - Челси (Лондон) [16.08] (2015) HDTV 1080i от GeneralFilm

60 | 13

10.47 ГБ

В этой теме нет новых непрочитанных сообщений. Футбол. Кубок Англии 2013-2014. 1/8 финала. Манчестер Сити - Челси [15.02] (2014) HDTV 1080i

55 | 24

8.35 ГБ

В этой теме нет новых непрочитанных сообщений. Футбол. Чемпионат Англии 2013-2014. 28-й тур. Манчестер Юнайтед - Манчестер Сити [25.03] (2014) HDTV 1080i

24 | 7

9.68 ГБ




Вы не можете начинать темы
Вы не можете отвечать на сообщения
Вы не можете редактировать свои сообщения
Вы не можете удалять свои сообщения
Вы не можете добавлять вложения

Перейти:  
Для Мосгорсуда, Роскомнадзора и рекламодателей: mosgorsud-torrent[собачка]yandex.ru
 Вход
ppkBB3cker v.2 © 2008-2014 @ PPK
[ Time : 0.045s | 17 Queries | GZIP : Off ]

cron