img image001 image001 image001 image001 image001 image001 image001 image001 image001 image001 image001 image001 image001 image001 image001

Planets Sun Sun Sun
Статистика раздачи
Автор: PriZraK | Размер: 2.12 ГБ | Добавлен: 15 фев 2014
Раздают: 79    Качают: 2
Скачать торрент
Скачать торрент
Описание торрента

СообщениеДобавлено: 15 фев 2014 

Церемония открытия XXII зимних Олимпийских игр в Сочи

Комментарий: Профессиональный
Язык комментариев: Русский (Анатолий Максимов и Кирилл Набутов)
Продолжительность: 02:36:43
Описание: Торжественная Церемония открытия XXII зимних Олимпийских игр 2014 в Сочи.
Автор рипа: sanchez2011
Качество: SATRip
Формат: AVI
Видео кодек: XviD
Аудио кодек: MP3
Видео: MPEG-4 Visual (H263) 720x400 (16:9) 25.00fps 1800kbps
Аудио: MPEG Audio Layer 3 48000Hz stereo 128kbps



General

Complete name : E:Олимпиада 2014Церемония открытия XXII зимних Олимпийских игр в Сочи Первый Канал SATRip XviD.avi
Format : AVI
Format/Info : Audio Video Interleave
Format profile : OpenDML
File size : 2.12 GiB
Duration : 2h 36mn
Overall bit rate : 1 935 Kbps
Director : sanchez2011 (rutracker.org)
Writing application : VirtualDubMod 1.5.10.2 (build 2540/release)
Writing library : VirtualDubMod build 2540/release

Video
ID : 0
Format : MPEG-4 Visual
Format profile : Advanced Simple@L5
Format settings, BVOP : 2
Format settings, QPel : No
Format settings, GMC : No warppoints
Format settings, Matrix : Default (H.263)
Codec ID : XVID
Codec ID/Hint : XviD
Duration : 2h 36mn
Bit rate : 1 794 Kbps
Width : 720 pixels
Height : 400 pixels
Display aspect ratio : 16:9
Frame rate : 25.000 fps
Color space : YUV
Chroma subsampling : 4:2:0
Bit depth : 8 bits
Scan type : Progressive
Compression mode : Lossy
Bits/(Pixel*Frame) : 0.249
Stream size : 1.96 GiB (93%)
Writing library : XviD 64

Audio
ID : 1
Format : MPEG Audio
Format version : Version 1
Format profile : Layer 3
Mode : Joint stereo
Mode extension : MS Stereo
Codec ID : 55
Codec ID/Hint : MP3
Duration : 2h 36mn
Bit rate mode : Constant
Bit rate : 128 Kbps
Channel(s) : 2 channels
Sampling rate : 48.0 KHz
Compression mode : Lossy
Stream size : 143 MiB (7%)
Alignment : Aligned on interleaves
Interleave, duration : 40 ms (1.00 video frame)
Interleave, preload duration : 504 ms
Writing library : LAME3.100



   Похожие торренты   Торрент   Размер 
В этой теме нет новых непрочитанных сообщений. XXII Зимние Олимпийские игры. Сочи. Церемония открытия [Первый HD] (2014) HDTV 1080i от MediaClub

159 | 7

13.16 ГБ

В этой теме нет новых непрочитанных сообщений. XXII зимние Олимпийские игры. Сочи. Церемония открытия + Церемония Закрытия [Спорт 1HD] (2014) HDTV 1080i

336 | 86

12.59 ГБ

В этой теме нет новых непрочитанных сообщений. XXII Зимние Олимпийские игры. Сочи. Церемония открытия [BBC] (2014) HDTVRip

1222 | 27

2.2 ГБ

В этой теме нет новых непрочитанных сообщений. XXII Зимние Олимпийские игры. Сочи. Церемония открытия [BBC] (2014) HDTVRip | 50 fps

57 | 2

5.15 ГБ

В этой теме нет новых непрочитанных сообщений. XXII Зимние Олимпийские игры. Сочи. Церемония открытия [CBC HD] (2014) HDTVRip 720p

3 | 2

6.55 ГБ

В этой теме нет новых непрочитанных сообщений. XXII Зимние Олимпийские игры. Сочи. Церемония открытия (2014) HDTV 1080i

31 | 3

6.54 ГБ

В этой теме нет новых непрочитанных сообщений. XXII зимние Олимпийские игры. Сочи. Церемония закрытия [Первый] (2014) SATRip

315 | 271

1.7 ГБ




Вы не можете начинать темы
Вы не можете отвечать на сообщения
Вы не можете редактировать свои сообщения
Вы не можете удалять свои сообщения
Вы не можете добавлять вложения

Перейти:  
Для Мосгорсуда, Роскомнадзора и рекламодателей: mosgorsud-torrent[собачка]yandex.ru
 Вход
ppkBB3cker v.2 © 2008-2014 @ PPK
[ Time : 0.056s | 14 Queries | GZIP : Off ]

Торрент трекер RUTOR.IN, Не можете зайти на rutor.org? Какой новый адрес рутор? Какое зеркало рутор? Не работает rutor.org и зеркала? Тогда наш торрент специально для вас. Rutor.in неофициальное зеркало rutor. В случае если у Вас заблокирован rutor или вдруг Вы не можете на него зайти, то Вы без труда сможете скачать бесплатно и без рекламы последние новинки кино, игр, сериалов и прочего у нас, на Rutor.in. Не нужно использовать прокси, чтобы зайти на рутор, достаточно воспользоваться нашим ресурсом. Все новые фильмы, игры, сериалы, книги и музыка за 2013 и 2014 годы через торрент бесплатно. Скачивайте фильмы в хорошем качестве, игры для пк, xbox, playstation без регистрации. У нас вы найдете новые Зарубежные сериалы и Русские сериалы 2013, 2014, 2015 годов. Оставайтесь с нами, качайте любимые фильмы, игры, сериалы, книги и музыку.